<?xml version="1.0" standalone="no"?>
<!DOCTYPE svg PUBLIC "-//W3C//DTD SVG 1.1//EN" "http://www.w3.org/Graphics/SVG/1.1/DTD/svg11.dtd" >
<svg xmlns="http://www.w3.org/2000/svg">
<metadata>Generated by IcoMoon</metadata>
<defs>
<font id="materialdesignicons" horiz-adv-x="1024">
<font-face units-per-em="1024" ascent="896" descent="-128" />
<missing-glyph horiz-adv-x="1024" />
<glyph unicode="&#x20;" horiz-adv-x="0" d="" />
<glyph unicode="&#xf0004;" glyph-name="account" d="M512 726q70 0 120-50t50-121-50-121-120-50-120 50-50 121 50 121 120 50zM512 298q92 0 171-23t125-62 46-85v-86h-684v86q0 46 46 85t125 62 171 23z" />
<glyph unicode="&#xf0006;" glyph-name="account-box" d="M256 170q0 40 48 72 40 28 104 46 58 14 104 14t104-14q64-18 104-46 48-32 48-72v-42h-512v42zM640 512q0-54-37-91t-91-37-91 37-37 91 37 91 91 37 91-37 37-91zM128 682v-596q0-36 25-61t61-25h596q36 0 61 25t25 61v596q0 36-25 61t-61 25h-596q-36 0-61-25t-25-61z" />
<glyph unicode="&#xf0007;" glyph-name="account-box-outline" d="M810 86h-596v596h596v-596zM810 768h-596q-36 0-61-25t-25-61v-596q0-36 25-61t61-25h596q36 0 61 25t25 61v596q0 36-25 61t-61 25zM704 202q0 30-36 54-30 20-78 32-42 10-78 10t-78-10q-48-12-78-32-36-24-36-54v-32h384v32zM512 374q40 0 68 28t28 68-28 68-68 28-68-28-28-68 28-68 68-28z" />
<glyph unicode="&#xf0009;" glyph-name="account-circle" d="M512 76q-78 0-146 37t-110 101q0 38 48 72 40 28 104 44 58 16 104 16t104-16q64-16 104-44 48-34 48-72-42-64-110-101t-146-37zM512 682q54 0 91-37t37-90-37-91-91-38-91 38-37 91 37 90 91 37zM512 810q-84 0-163-32t-139-92-92-139-32-163 32-163 92-139 139-92 163-32 163 32 139 92 92 139 32 163q0 116-57 214t-155 155-214 57z" />
<glyph unicode="&#xf000e;" glyph-name="account-multiple" d="M682 170v-84h-596v84l2 18q4 22 16 42 18 30 46 52 36 26 88 42 62 18 146 18 132 0 210-44 56-32 78-84 10-24 10-44v0zM534 576q0 46-26 83t-67 55-86 9-77-41-41-77 9-86 55-67 83-26q62 0 106 44t44 106zM680 342q40-32 63-77t25-95v-84h170v84l-2 16q-4 20-14 40-14 28-40 48-30 28-76 44-54 18-126 24zM640 726q-46 0-82-26 40-56 40-124t-40-124q36-26 82-26 62 0 106 44t44 106-44 106-106 44z" />
<glyph unicode="&#xf000f;" glyph-name="account-multiple-outline" d="M558 452q40 56 40 124t-40 124q36 26 82 26 62 0 106-44t44-106-44-106-106-44q-46 0-82 26zM234 576q0 46 26 83t67 55 86 9 77-41 41-77-9-86-55-67-83-26q-62 0-106 44t-44 106zM320 576q0-26 19-45t45-19 45 19 19 45-19 45-45 19-45-19-19-45zM682 170v-84h-596v84l2 18q4 22 16 42 18 30 46 52 36 26 88 42 62 18 146 18 132 0 210-44 56-32 78-84 10-24 10-44v0zM598 170q-6 32-50 56-58 30-164 30-72 0-124-16-44-12-68-34-20-18-22-36h428zM680 342q40-32 63-77t25-95v-84h170v84l-2 16q-4 20-14 40-14 28-40 48-30 28-76 44-54 18-126 24z" />
<glyph unicode="&#xf0013;" glyph-name="account-outline" d="M512 726q70 0 120-50t50-121-50-121-120-50-120 50-50 121 50 121 120 50zM512 640q-36 0-61-25t-25-60 25-60 61-25 61 25 25 60-25 60-61 25zM512 342q64 0 140-20 86-22 138-56 64-42 64-96v-128h-684v128q0 54 64 96 52 34 138 56 76 20 140 20zM512 260q-60 0-124-16-56-16-96-38t-40-36v-46h520v46q0 14-40 36t-96 38q-64 16-124 16z" />
<glyph unicode="&#xf0016;" glyph-name="account-search" d="M662 384q80 0 136-56t56-136q0-56-30-102l132-132-60-60-134 132q-46-30-100-30-80 0-136 56t-56 136 56 136 136 56zM662 298q-44 0-76-31t-32-75 32-75 76-31 75 31 31 75-31 75-75 31zM426 726q72 0 122-50t50-122q0-56-36-104-54-20-96-62l-40-4q-70 0-120 50t-50 121 50 121 120 50zM86 42v86q0 44 42 82t116 62 162 26q-22-52-22-106 0-80 42-150h-340z" />
<glyph unicode="&#xf001a;" glyph-name="adjust" d="M512 810q-84 0-163-32t-139-92-92-139-32-163 32-163 92-139 139-92 163-32 163 32 139 92 92 139 32 163-32 163-92 139-139 92-163 32zM512 42q-92 0-171 46t-125 125-46 171 46 171 125 125 171 46 171-46 125-125 46-171-46-171-125-125-171-46zM640 384q0-54-37-91t-91-37-91 37-37 91 37 91 91 37 91-37 37-91z" />
<glyph unicode="&#xf0026;" glyph-name="alert" d="M554 298h-84v214h84v-214zM554 128h-84v86h84v-86zM42 0h940l-470 810z" />
<glyph unicode="&#xf0027;" glyph-name="alert-box" d="M214 768h596q36 0 61-25t25-61v-596q0-36-25-61t-61-25h-596q-36 0-61 25t-25 61v596q0 36 25 61t61 25zM554 342v256h-84v-256h84zM554 170v86h-84v-86h84z" />
<glyph unicode="&#xf0028;" glyph-name="alert-circle" d="M554 342h-84v256h84v-256zM554 170h-84v86h84v-86zM512 810q-84 0-163-32t-139-92-92-139-32-163 32-163 92-139 139-92 163-32 163 32 139 92 92 139 32 163-32 163-92 139-139 92-163 32z" />
<glyph unicode="&#xf002a;" glyph-name="alert-outline" d="M512 810l-470-810h940zM512 640l322-554h-644zM470 470v-172h84v172h-84zM470 214v-86h84v86h-84z" />
<glyph unicode="&#xf002d;" glyph-name="greenhouse" d="M512 768l-342-256v-512h684v512zM426 470h172v-384h-172v384zM682 470h86v-128h-86v128zM654 554h-284l142 108zM342 470v-128h-86v128h86zM256 256h86v-170h-86v170zM682 86v170h86v-170h-86z" />
<glyph unicode="&#xf003b;" glyph-name="apps" d="M682 42h172v172h-172v-172zM682 298h172v172h-172v-172zM426 554h172v172h-172v-172zM682 554h172v172h-172v-172zM426 298h172v172h-172v-172zM170 298h172v172h-172v-172zM170 42h172v172h-172v-172zM426 42h172v172h-172v-172zM170 554h172v172h-172v-172z" />
<glyph unicode="&#xf004d;" glyph-name="arrow-left" d="M854 426v-84h-512l234-236-60-60-338 338 338 338 60-60-234-236h512z" />
<glyph unicode="&#xf004e;" glyph-name="arrow-left-thick" d="M854 470v-172h-384l148-148-102-104-338 338 338 338 102-104-148-148h384z" />
<glyph unicode="&#xf004f;" glyph-name="arrow-left-bold-circle" d="M938 384q0-84-32-163t-92-139-139-92-163-32-163 32-139 92-92 139-32 163 32 163 92 139 139 92 163 32 163-32 139-92 92-139 32-163zM298 384l214-214v128h170v172h-170v128z" />
<glyph unicode="&#xf0050;" glyph-name="arrow-left-bold-circle-outline" d="M298 384l214 214v-128h170v-172h-170v-128zM938 384q0-84-32-163t-92-139-139-92-163-32-163 32-139 92-92 139-32 163 32 163 92 139 139 92 163 32 163-32 139-92 92-139 32-163zM854 384q0 92-46 171t-125 125-171 46-171-46-125-125-46-171 46-171 125-125 171-46 171 46 125 125 46 171z" />
<glyph unicode="&#xf0052;" glyph-name="arrow-left-drop-circle" d="M938 384q0-84-32-163t-92-139-139-92-163-32-163 32-139 92-92 139-32 163 32 163 92 139 139 92 163 32 163-32 139-92 92-139 32-163zM598 598l-214-214 214-214v428z" />
<glyph unicode="&#xf0053;" glyph-name="arrow-left-drop-circle-outline" d="M938 384q0 84-32 163t-92 139-139 92-163 32-163-32-139-92-92-139-32-163 32-163 92-139 139-92 163-32 163 32 139 92 92 139 32 163zM854 384q0-92-46-171t-125-125-171-46-171 46-125 125-46 171 46 171 125 125 171 46 171-46 125-125 46-171zM598 598l-214-214 214-214v428z" />
<glyph unicode="&#xf0054;" glyph-name="arrow-right" d="M170 426v-84h512l-234-236 60-60 338 338-338 338-60-60 234-236h-512z" />
<glyph unicode="&#xf0055;" glyph-name="arrow-right-thick" d="M170 470v-172h384l-148-148 102-104 338 338-338 338-102-104 148-148h-384z" />
<glyph unicode="&#xf0056;" glyph-name="arrow-right-bold-circle" d="M86 384q0 84 32 163t92 139 139 92 163 32 163-32 139-92 92-139 32-163-32-163-92-139-139-92-163-32-163 32-139 92-92 139-32 163zM726 384l-214 214v-128h-170v-172h170v-128z" />
<glyph unicode="&#xf0057;" glyph-name="arrow-right-bold-circle-outline" d="M726 384l-214-214v128h-170v172h170v128zM86 384q0 84 32 163t92 139 139 92 163 32 163-32 139-92 92-139 32-163-32-163-92-139-139-92-163-32-163 32-139 92-92 139-32 163zM170 384q0-92 46-171t125-125 171-46 171 46 125 125 46 171-46 171-125 125-171 46-171-46-125-125-46-171z" />
<glyph unicode="&#xf0059;" glyph-name="arrow-right-drop-circle" d="M86 384q0 84 32 163t92 139 139 92 163 32 163-32 139-92 92-139 32-163-32-163-92-139-139-92-163-32-163 32-139 92-92 139-32 163zM426 170l214 214-214 214v-428z" />
<glyph unicode="&#xf005a;" glyph-name="arrow-right-drop-circle-outline" d="M86 384q0-84 32-163t92-139 139-92 163-32 163 32 139 92 92 139 32 163-32 163-92 139-139 92-163 32-163-32-139-92-92-139-32-163zM170 384q0 92 46 171t125 125 171 46 171-46 125-125 46-171-46-171-125-125-171-46-171 46-125 125-46 171zM426 170l214 214-214 214v-428z" />
<glyph unicode="&#xf0065;" glyph-name="at" d="M512 256q50 0 89 39t39 89-39 89-89 39-89-39-39-89 39-89 89-39zM512 810q174 0 300-126t126-300v-62q0-62-43-107t-105-45q-78 0-126 64-64-64-151-64t-151 64-64 150 64 150 150 64 150-64 64-150v-62q0-26 19-46t45-20 45 20 19 46v62q0 140-101 241t-241 101-241-101-101-241 101-241 241-101h214v-84h-214q-174 0-300 126t-126 300 126 300 300 126z" />
<glyph unicode="&#xf00ad;" glyph-name="block-helper" d="M512 896q140 0 257-69t186-186 69-257-69-257-186-186-257-69-257 69-186 186-69 257 69 257 186 186 257 69zM512 810q-84 0-163-32t-139-92-92-139-32-163q0-76 25-145t71-125l600 600q-56 46-125 71t-145 25zM512-42q84 0 163 32t139 92 92 139 32 163q0 76-25 145t-71 125l-600-600q56-46 125-71t145-25z" />
<glyph unicode="&#xf00bd;" glyph-name="book-open" d="M554 384h300v-64h-300v64zM554 490h300v-64h-300v64zM554 278h300v-64h-300v64zM896 726h-768q-36 0-61-25t-25-61v-554q0-36 25-61t61-25h768q36 0 61 25t25 61v554q0 36-25 61t-61 25zM896 86h-384v554h384v-554z" />
<glyph unicode="&#xf00be;" glyph-name="book-open-blank-variant" d="M896 682q-68 22-150 22-68 0-124-14-66-16-110-50-44 34-110 50-56 14-124 14t-126-14q-66-16-110-50v-626q0-8 7-14t15-6l10 2q44 20 100 33t104 13q68 0 124-14 66-16 110-50 42 28 111 46t123 18q120 0 204-44 4-2 11-2t14 7 7 15v622q-34 26-86 42zM896 106q-68 22-150 22-54 0-123-19t-111-45v490q42 28 111 46t123 18q82 0 150-20v-492z" />
<glyph unicode="&#xf00c9;" glyph-name="border-color" d="M884 724q12 12 12 30t-12 30l-100 100q-12 12-30 12t-30-12l-84-84 160-160zM758 598l-160 160-428-428v-160h160z" />
<glyph unicode="&#xf00e8;" glyph-name="cached" d="M810 554l-170-170h128q0-70-34-129t-93-93-129-34q-64 0-120 30l-62-62q84-54 182-54 92 0 171 46t125 125 46 171h128zM256 384q0 70 34 129t93 93 129 34q64 0 120-30l62 62q-84 54-182 54-92 0-171-46t-125-125-46-171h-128l172-170 170 170h-128z" />
<glyph unicode="&#xf00ec;" glyph-name="calculator" d="M298 810h428q34 0 59-25t25-59v-684q0-34-25-59t-59-25h-428q-34 0-59 25t-25 59v684q0 34 25 59t59 25zM298 726v-172h428v172h-428zM298 470v-86h86v86h-86zM470 470v-86h84v86h-84zM640 470v-86h86v86h-86zM298 298v-84h86v84h-86zM470 298v-84h84v84h-84zM640 298v-84h86v84h-86zM298 128v-86h86v86h-86zM470 128v-86h84v86h-84zM640 128v-86h86v86h-86z" />
<glyph unicode="&#xf00ed;" glyph-name="calendar" d="M810 86h-596v468h596v-468zM682 854v-86h-340v86h-86v-86h-42q-36 0-61-25t-25-61v-596q0-36 25-61t61-25h596q36 0 61 25t25 61v596q0 36-25 61t-61 25h-42v86h-86zM726 384h-214v-214h214v214z" />
<glyph unicode="&#xf00ee;" glyph-name="calendar-blank" d="M810 86h-596v468h596v-468zM682 854v-86h-340v86h-86v-86h-42q-36 0-61-25t-25-61v-596q0-36 25-61t61-25h596q36 0 61 25t25 61v596q0 36-25 61t-61 25h-42v86h-86z" />
<glyph unicode="&#xf00ef;" glyph-name="calendar-check" d="M810 86h-596v468h596v-468zM810 768h-42v86h-86v-86h-340v86h-86v-86h-42q-36 0-61-25t-25-61v-596q0-36 25-61t61-25h596q36 0 61 25t25 61v596q0 36-25 61t-61 25zM706 424l-46 46-208-208-90 90-46-46 136-136z" />
<glyph unicode="&#xf00f0;" glyph-name="calendar-clock" d="M640 342h64v-120l104-62-32-54-136 78v158zM810 554h-596v-468h198q-28 60-28 128 0 80 40 149t109 109 149 40q68 0 128-28v70zM214 0q-36 0-61 25t-25 61v596q0 36 25 61t61 25h42v86h86v-86h340v86h86v-86h42q36 0 61-25t25-61v-260q40-40 63-94t23-114q0-82-41-150t-109-109-150-41q-60 0-114 23t-94 63h-260zM682 420q-56 0-103-28t-75-75-28-103 28-104 75-76 103-28q42 0 80 16t67 45 45 67 16 80q0 56-28 103t-76 75-104 28z" />
<glyph unicode="&#xf0100;" glyph-name="camera" d="M170 726h128l86 84h256l86-84h128q34 0 59-25t25-61v-512q0-36-25-61t-59-25h-684q-34 0-59 25t-25 61v512q0 36 25 61t59 25zM512 598q-58 0-107-29t-78-78-29-107 29-107 78-78 107-29 107 29 78 78 29 107-29 107-78 78-107 29zM512 512q54 0 91-37t37-91-37-91-91-37-91 37-37 91 37 91 91 37z" />
<glyph unicode="&#xf0110;" glyph-name="cart" d="M726 128q-36 0-61-25t-25-60 25-60 60-25 60 25 25 60-25 60-59 25zM42 810v-84h86l154-324-58-106q-10-18-10-40 0-36 25-61t59-25h512v86h-494q-4 0-7 3t-3 7 2 6l38 70h318q24 0 44 12t30 32l152 276q6 12 6 20 0 18-12 31t-30 13h-632l-40 84h-140zM298 128q-34 0-59-25t-25-60 25-60 60-25 60 25 25 60-25 60-61 25z" />
<glyph unicode="&#xf0111;" glyph-name="cart-outline" d="M726 128q34 0 59-25t25-60-25-60-60-25-60 25-25 60 25 60 61 25zM42 810h140l40-84h632q18 0 30-13t12-31q0-8-6-20l-152-276q-10-20-30-32t-44-12h-318l-38-70-2-6q0-4 3-7t7-3h494v-86h-512q-34 0-59 25t-25 61q0 22 10 40l58 106-154 324h-86v84zM298 128q36 0 61-25t25-60-25-60-60-25-60 25-25 60 25 60 59 25zM682 426l120 214h-540l100-214h320z" />
<glyph unicode="&#xf011c;" glyph-name="cellphone" d="M726 86h-428v596h428v-596zM726 854h-428q-34 0-59-25t-25-61v-768q0-36 25-61t59-25h428q34 0 59 25t25 61v768q0 36-25 61t-59 25z" />
<glyph unicode="&#xf011d;" glyph-name="tray-arrow-up" d="M86 384h84v-214h684v214h84v-214q0-34-25-59t-59-25h-684q-34 0-59 25t-25 59v214zM512 810l-236-232 60-60 134 132v-394h84v394l134-132 60 60z" />
<glyph unicode="&#xf0127;" glyph-name="chart-areaspline" d="M744 248l194 336v-584h-852v768h84v-536l236 408 276-162 182 314 74-44-224-386-278 160-252-436h96l188 322z" />
<glyph unicode="&#xf0128;" glyph-name="chart-bar" d="M938 0h-852v768h84v-682h86v384h170v-384h86v554h170v-554h86v212h170v-298z" />
<glyph unicode="&#xf012a;" glyph-name="chart-line" d="M682 394l182 312 74-42-224-386-278 160-204-352h706v-86h-852v768h84v-620l236 406z" />
<glyph unicode="&#xf012c;" glyph-name="check" d="M896 598l-512-512-234 234 60 60 174-174 452 452z" />
<glyph unicode="&#xf012e;" glyph-name="checkbox-blank" d="M810 768h-596q-36 0-61-25t-25-61v-596q0-36 25-61t61-25h596q36 0 61 25t25 61v596q0 36-25 61t-61 25z" />
<glyph unicode="&#xf0131;" glyph-name="checkbox-blank-outline" d="M810 768h-596q-36 0-61-25t-25-61v-596q0-36 25-61t61-25h596q36 0 61 25t25 61v596q0 36-25 61t-61 25zM810 682v-596h-596v596h596z" />
<glyph unicode="&#xf0132;" glyph-name="checkbox-marked" d="M426 170l-212 214 60 60 152-152 324 324 60-62zM810 768h-596q-36 0-61-25t-25-61v-596q0-36 25-61t61-25h596q36 0 61 25t25 61v596q0 36-25 61t-61 25z" />
<glyph unicode="&#xf0133;" glyph-name="checkbox-marked-circle" d="M426 170l-212 214 60 60 152-152 324 324 60-62zM512 810q-84 0-163-32t-139-92-92-139-32-163 32-163 92-139 139-92 163-32 163 32 139 92 92 139 32 163-32 163-92 139-139 92-163 32z" />
<glyph unicode="&#xf0134;" glyph-name="checkbox-marked-circle-outline" d="M854 384q0-92-46-171t-125-125-171-46-171 46-125 125-46 171 46 171 125 125 171 46q48 0 94-14l66 68q-76 30-160 30t-163-32-139-92-92-139-32-163 32-163 92-139 139-92 163-32 163 32 139 92 92 139 32 163h-84zM338 466l-60-60 192-192 426 426-60 60-366-366z" />
<glyph unicode="&#xf0135;" glyph-name="checkbox-marked-outline" d="M810 86h-596v596h426v86h-426q-36 0-61-25t-25-61v-596q0-36 25-61t61-25h596q36 0 61 25t25 61v340h-86v-340zM338 466l-60-60 192-192 426 426-60 60-366-366z" />
<glyph unicode="&#xf013c;" glyph-name="chevron-double-down" d="M708 658l60-60-256-256-256 256 60 60 196-196zM708 402l60-60-256-256-256 256 60 60 196-196z" />
<glyph unicode="&#xf013d;" glyph-name="chevron-double-left" d="M786 580l-60 60-256-256 256-256 60 60-196 196zM530 580l-60 60-256-256 256-256 60 60-196 196z" />
<glyph unicode="&#xf013e;" glyph-name="chevron-double-right" d="M238 580l60 60 256-256-256-256-60 60 196 196zM494 580l60 60 256-256-256-256-60 60 196 196z" />
<glyph unicode="&#xf013f;" glyph-name="chevron-double-up" d="M316 110l-60 60 256 256 256-256-60-60-196 196zM316 366l-60 60 256 256 256-256-60-60-196 196z" />
<glyph unicode="&#xf0140;" glyph-name="chevron-down" d="M316 530l196-196 196 196 60-60-256-256-256 256z" />
<glyph unicode="&#xf0141;" glyph-name="chevron-left" d="M658 188l-196 196 196 196-60 60-256-256 256-256z" />
<glyph unicode="&#xf0142;" glyph-name="chevron-right" d="M366 188l196 196-196 196 60 60 256-256-256-256z" />
<glyph unicode="&#xf0143;" glyph-name="chevron-up" d="M316 238l196 196 196-196 60 60-256 256-256-256z" />
<glyph unicode="&#xf0147;" glyph-name="clipboard" d="M810 768h-178q-14 38-47 62t-73 24-73-24-47-62h-178q-36 0-61-25t-25-61v-596q0-36 25-61t61-25h596q36 0 61 25t25 61v596q0 36-25 61t-61 25zM512 768q18 0 30-12t12-30-12-31-30-13-30 13-12 31 12 30 30 12z" />
<glyph unicode="&#xf014c;" glyph-name="clipboard-outline" d="M810 768h-178q-14 38-47 62t-73 24-73-24-47-62h-178q-36 0-61-25t-25-61v-596q0-36 25-61t61-25h596q36 0 61 25t25 61v596q0 36-25 61t-61 25zM512 768q18 0 30-12t12-30-12-31-30-13-30 13-12 31 12 30 30 12zM298 598h428v84h84v-596h-596v596h84v-84z" />
<glyph unicode="&#xf014d;" glyph-name="clipboard-text" d="M726 512h-428v86h428v-86zM726 342h-428v84h428v-84zM598 170h-300v86h300v-86zM512 768q18 0 30-12t12-30-12-31-30-13-30 13-12 31 12 30 30 12zM810 768h-178q-14 38-47 62t-73 24-73-24-47-62h-178q-36 0-61-25t-25-61v-596q0-36 25-61t61-25h596q36 0 61 25t25 61v596q0 36-25 61t-61 25z" />
<glyph unicode="&#xf014e;" glyph-name="clipboard-check" d="M426 170l-170 172 60 60 110-110 282 280 60-60zM512 768q18 0 30-12t12-30-12-31-30-13-30 13-12 31 12 30 30 12zM810 768h-178q-14 38-47 62t-73 24-73-24-47-62h-178q-36 0-61-25t-25-61v-596q0-36 25-61t61-25h596q36 0 61 25t25 61v596q0 36-25 61t-61 25z" />
<glyph unicode="&#xf0156;" glyph-name="close" d="M810 622l-60 60-238-238-238 238-60-60 238-238-238-238 60-60 238 238 238-238 60 60-238 238z" />
<glyph unicode="&#xf0157;" glyph-name="close-box" d="M810 768h-596q-36 0-61-25t-25-61v-596q0-36 25-61t61-25h596q36 0 61 25t25 61v596q0 36-25 61t-61 25zM666 170l-154 154-154-154-60 60 154 154-154 154 60 60 154-154 154 154 60-60-154-154 154-154z" />
<glyph unicode="&#xf0158;" glyph-name="close-box-outline" d="M810 768h-596q-36 0-61-25t-25-61v-596q0-36 25-61t61-25h596q36 0 61 25t25 61v596q0 36-25 61t-61 25zM810 86h-596v596h596v-596zM726 538l-154-154 154-154-60-60-154 154-154-154-60 60 154 154-154 154 60 60 154-154 154 154z" />
<glyph unicode="&#xf0159;" glyph-name="close-circle" d="M512 810q116 0 214-57t155-155 57-214-57-214-155-155-214-57-214 57-155 155-57 214 57 214 155 155 214 57zM666 598l-154-154-154 154-60-60 154-154-154-154 60-60 154 154 154-154 60 60-154 154 154 154z" />
<glyph unicode="&#xf015a;" glyph-name="close-circle-outline" d="M512 42q-92 0-171 46t-125 125-46 171 46 171 125 125 171 46 171-46 125-125 46-171-46-171-125-125-171-46zM512 810q-116 0-214-57t-155-155-57-214 57-214 155-155 214-57 214 57 155 155 57 214-57 214-155 155-214 57zM622 554l-110-110-110 110-60-60 110-110-110-110 60-60 110 110 110-110 60 60-110 110 110 110z" />
<glyph unicode="&#xf016c;" glyph-name="code-greater-than" d="M444 580l196-196-196-196-60 60 136 136-136 136zM214 768q-36 0-61-25t-25-61v-596q0-36 25-61t61-25h596q36 0 61 25t25 61v596q0 36-25 61t-61 25h-596z" />
<glyph unicode="&#xf016e;" glyph-name="code-less-than" d="M580 580l-196-196 196-196 60 60-136 136 136 136zM810 768q36 0 61-25t25-61v-596q0-36-25-61t-61-25h-596q-36 0-61 25t-25 61v596q0 36 25 61t61 25h596z" />
<glyph unicode="&#xf017a;" glyph-name="comment" d="M384-42q-18 0-30 12t-12 30v128h-172q-34 0-59 25t-25 61v512q0 34 25 59t59 25h684q34 0 59-25t25-59v-512q0-36-25-61t-59-25h-260l-158-158q-14-12-30-12h-22z" />
<glyph unicode="&#xf017d;" glyph-name="comment-alert" d="M384-42q-20 0-31 11t-11 31v128h-172q-34 0-59 25t-25 61v512q0 34 25 59t59 25h684q34 0 59-25t25-59v-512q0-36-25-61t-59-25h-260l-158-158q-14-12-30-12h-22zM554 426v256h-84v-256h84zM554 256v86h-84v-86h84z" />
<glyph unicode="&#xf017e;" glyph-name="comment-alert-outline" d="M384-42q-18 0-30 12t-12 30v128h-172q-34 0-59 25t-25 61v512q0 34 25 59t59 25h684q34 0 59-25t25-59v-512q0-36-25-61t-59-25h-260l-158-158q-14-12-30-12h-22zM426 214v-132l132 132h296v512h-684v-512h256zM554 470h-84v170h84v-170zM554 298h-84v86h84v-86z" />
<glyph unicode="&#xf017f;" glyph-name="comment-check" d="M384-42q-18 0-30 12t-12 30v128h-172q-34 0-59 25t-25 61v512q0 34 25 59t59 25h684q34 0 59-25t25-59v-512q0-36-25-61t-59-25h-260l-158-158q-14-12-30-12h-22zM426 256l342 342-60 60-282-282-110 110-60-60z" />
<glyph unicode="&#xf0180;" glyph-name="comment-check-outline" d="M384-42q-18 0-30 12t-12 30v128h-172q-34 0-59 25t-25 61v512q0 34 25 59t59 25h684q34 0 59-25t25-59v-512q0-36-25-61t-59-25h-260l-158-158q-14-12-30-12h-22zM426 214v-132l132 132h296v512h-684v-512h256zM704 554l-234-234-150 150 60 60 90-90 174 174z" />
<glyph unicode="&#xf0181;" glyph-name="comment-multiple-outline" d="M512-86q-18 0-30 13t-12 31v128h-172q-34 0-59 25t-25 59v428q0 34 25 59t59 25h598q36 0 61-25t25-59v-428q0-34-25-59t-61-25h-174l-158-158q-14-14-30-14h-22zM554 170v-130l132 130h210v428h-598v-428h256zM128 256h-86v512q0 36 25 61t61 25h682v-86h-682v-512z" />
<glyph unicode="&#xf0182;" glyph-name="comment-outline" d="M384-42q-18 0-30 12t-12 30v128h-172q-34 0-59 25t-25 61v512q0 34 25 59t59 25h684q34 0 59-25t25-59v-512q0-36-25-61t-59-25h-260l-158-158q-14-12-30-12h-22zM426 214v-132l132 132h296v512h-684v-512h256z" />
<glyph unicode="&#xf0186;" glyph-name="comment-question-outline" d="M170 810q-34 0-59-25t-25-59v-512q0-36 25-61t59-25h172v-128q0-18 12-30t30-12h22q16 0 30 12l158 158h260q34 0 59 25t25 61v512q0 34-25 59t-59 25h-684zM170 726h684v-512h-296l-132-132v132h-256v512zM520 662q-56 0-92-24t-32-70h84q0 18 12 27t28 9q22 0 33-11t11-29-10-32-26-24q-32-18-45-34t-13-48h84q0 18 6 29t22 21q30 14 49 37t19 51q0 44-35 71t-95 27zM470 384v-86h84v86h-84z" />
<glyph unicode="&#xf0188;" glyph-name="comment-text" d="M384-42q-18 0-30 12t-12 30v128h-172q-34 0-59 25t-25 61v512q0 34 25 59t59 25h684q34 0 59-25t25-59v-512q0-36-25-61t-59-25h-260l-158-158q-14-12-30-12h-22zM214 682v-84h596v84h-596zM214 512v-86h340v86h-340zM214 342v-86h426v86h-426z" />
<glyph unicode="&#xf0189;" glyph-name="comment-text-outline" d="M384-42q-18 0-30 12t-12 30v128h-172q-34 0-59 25t-25 61v512q0 34 25 59t59 25h684q34 0 59-25t25-59v-512q0-36-25-61t-59-25h-260l-158-158q-14-12-30-12h-22zM426 214v-132l132 132h296v512h-684v-512h256zM256 598h512v-86h-512v86zM256 426h384v-84h-384v84z" />
<glyph unicode="&#xf0192;" glyph-name="content-paste" d="M810 42h-596v684h84v-128h428v128h84v-684zM512 810q18 0 30-12t12-30-12-30-30-12-30 12-12 30 12 30 30 12zM810 810h-178q-14 38-47 62t-73 24-73-24-47-62h-178q-36 0-61-25t-25-59v-684q0-34 25-59t61-25h596q36 0 61 25t25 59v684q0 34-25 59t-61 25z" />
<glyph unicode="&#xf0198;" glyph-name="cookie" d="M512 768q-104 0-192-52t-140-140-52-192 52-192 140-140 192-52 192 52 140 140 52 192q0 34-6 64-6 14-22 18-8 4-14 4h-86v42q0 26-22 38-10 4-20 4h-86v44q0 26-22 36-10 6-20 6h-44v86q0 26-20 36-12 6-22 6v0zM406 640q26 0 45-19t19-45-19-45-46-19-45 19-18 45 18 45 46 19zM278 470q26 0 45-19t19-46-19-45-46-18-45 18-18 45 18 46 46 19zM490 426q28 0 46-18t18-45-18-46-45-19-46 19-19 46 19 45 45 18zM704 342q26 0 45-19t19-46-19-45-45-18v0q-26 0-45 18t-19 46v0q0 26 19 45t45 19zM470 214q26 0 45-19t19-46-19-45-46-18-45 18-18 45 18 46 46 19z" />
<glyph unicode="&#xf01a5;" glyph-name="crown" d="M214 214l-86 468 234-212 150 256 150-256 234 212-86-468h-596zM810 86q0-20-11-32t-31-12h-512q-20 0-31 12t-11 32v42h596v-42z" />
<glyph unicode="&#xf01a6;" glyph-name="cube" d="M896 192q0-26-22-38l-338-188q-10-8-24-8t-24 8l-338 188q-22 12-22 38v384q0 26 22 38l338 188q10 8 24 8t24-8l338-188q22-12 22-38v-384zM512 718l-254-142 254-142 254 142z" />
<glyph unicode="&#xf01a7;" glyph-name="cube-outline" d="M896 192q0-26-22-38l-338-188q-10-8-24-8t-24 8l-338 188q-22 12-22 38v384q0 26 22 38l338 188q10 8 24 8t24-8l338-188q22-12 22-38v-384zM512 718l-254-142 254-142 254 142zM214 218l256-146v288l-256 144v-286zM810 218v286l-256-144v-288z" />
<glyph unicode="&#xf01ad;" glyph-name="currency-eur" d="M640 662q104 0 180-68l76 76q-110 98-256 98-126 0-224-72t-138-184h-192l42-86h130q-2-8-2-42t2-42h-172l42-86h150q40-112 139-184t223-72q60 0 136 29t120 69l-76 76q-76-68-180-68-72 0-143 43t-103 107h288l-42 86h-274q-4 28-4 42t4 42h316l-42 86h-246q32 62 102 106t144 44z" />
<glyph unicode="&#xf01d8;" glyph-name="dots-horizontal" d="M682 384q0 36 25 61t61 25 61-25 25-61-25-61-61-25-61 25-25 61zM426 384q0 36 25 61t61 25 61-25 25-61-25-61-61-25-61 25-25 61zM170 384q0 36 25 61t61 25 61-25 25-61-25-61-61-25-61 25-25 61z" />
<glyph unicode="&#xf01d9;" glyph-name="dots-vertical" d="M512 214q36 0 61-25t25-61-25-61-61-25-61 25-25 61 25 61 61 25zM512 470q36 0 61-25t25-61-25-61-61-25-61 25-25 61 25 61 61 25zM512 726q36 0 61-25t25-61-25-61-61-25-61 25-25 61 25 61 61 25z" />
<glyph unicode="&#xf01da;" glyph-name="download" d="M214 42h596v86h-596v-86zM810 512h-170v256h-256v-256h-170l298-298z" />
<glyph unicode="&#xf01e3;" glyph-name="dropbox" d="M128 632l214-136 212 136-212 136zM554 632l214-136 214 136-214 136zM128 360l214-136 212 136-212 138zM768 498l-214-138 214-136 214 136zM342 180l214-138 214 138-214 136z" />
<glyph unicode="&#xf01eb;" glyph-name="elevation-decline" d="M896 0h-768v416l276-160 160 94 332-192v-158zM128 514v94l276-160 160 94 332-192v-94l-332 192-160-92z" />
<glyph unicode="&#xf01ec;" glyph-name="elevation-rise" d="M128 0v158l332 192 160-94 276 160v-416h-768zM896 514l-276-158-160 92-332-192v94l332 192 160-94 276 160v-94z" />
<glyph unicode="&#xf01ee;" glyph-name="email" d="M854 554l-342-212-342 212v86l342-214 342 214v-86zM854 726h-684q-34 0-59-25t-25-61v-512q0-36 25-61t59-25h684q34 0 59 25t25 61v512q0 36-25 61t-59 25z" />
<glyph unicode="&#xf01ef;" glyph-name="email-open" d="M170 554l342-212 342 212-342 214zM938 554v-426q0-36-25-61t-59-25h-684q-34 0-59 25t-25 61v426q0 24 11 43t29 31l386 240 386-240q18-12 29-31t11-43z" />
<glyph unicode="&#xf01f0;" glyph-name="email-outline" d="M938 640q0 36-25 61t-59 25h-684q-34 0-59-25t-25-61v-512q0-36 25-61t59-25h684q34 0 59 25t25 61v512zM854 640l-342-214-342 214h684zM854 128h-684v426l342-212 342 212v-426z" />
<glyph unicode="&#xf01f5;" glyph-name="emoticon-happy-outline" d="M854 384q0 92-46 171t-125 125-171 46-171-46-125-125-46-171 46-171 125-125 171-46 171 46 125 125 46 171zM938 384q0-84-32-163t-92-139-139-92-163-32-163 32-139 92-92 139-32 163 32 163 92 139 139 92 163 32 163-32 139-92 92-139 32-163zM426 490q0-24-19-44t-44-20-45 20-20 45 20 44 45 19 44-19 19-45zM726 490q0-24-20-44t-45-20-44 20-19 45 19 44 44 19 45-19 20-45zM512 160q-54 0-102 21t-76 57l60 60q14-22 46-37t72-15 72 15 46 37l60-60q-28-36-76-57t-102-21z" />
<glyph unicode="&#xf01f6;" glyph-name="emoticon-neutral-outline" d="M512 810q-84 0-163-32t-139-92-92-139-32-163 32-163 92-139 139-92 163-32 163 32 139 92 92 139 32 163-32 163-92 139-139 92-163 32zM512 42q-92 0-171 46t-125 125-46 171 46 171 125 125 171 46 171-46 125-125 46-171-46-171-125-125-171-46zM362 426q-26 0-45 19t-19 46 19 45 46 18 45-18 18-45-18-46-46-19zM726 490q0-26-19-45t-46-19-45 19-18 46 18 45 45 18 46-18 19-46zM682 298v-84h-340v84h340z" />
<glyph unicode="&#xf01f8;" glyph-name="emoticon-sad-outline" d="M854 384q0 92-46 171t-125 125-171 46-171-46-125-125-46-171 46-171 125-125 171-46 171 46 125 125 46 171zM938 384q0-84-32-163t-92-139-139-92-163-32-163 32-139 92-92 139-32 163 32 163 92 139 139 92 163 32 163-32 139-92 92-139 32-163zM662 554q24 0 44-19t20-44-20-45-45-20-44 20-19 45 19 44 45 19zM426 490q0-24-19-44t-44-20-45 20-20 45 20 44 45 19 44-19 19-45zM512 298q56 0 103-21t75-55l-60-62q-14 24-46 39t-72 15-72-15-46-39l-60 62q28 34 75 55t103 21z" />
<glyph unicode="&#xf0207;" glyph-name="export" d="M982 384l-172 170v-128h-384v-84h384v-128zM42 128v512q0 36 25 61t61 25h512q36 0 61-25t25-61v-128h-86v128h-512v-512h512v128h86v-128q0-36-25-61t-61-25h-512q-36 0-61 25t-25 61z" />
<glyph unicode="&#xf0208;" glyph-name="eye" d="M512 512q-54 0-91-37t-37-91 37-91 91-37 91 37 37 91-37 91-91 37zM512 170q-58 0-107 29t-78 78-29 107 29 107 78 78 107 29 107-29 78-78 29-107-29-107-78-78-107-29zM512 704q-158 0-286-89t-184-231q56-142 184-231t286-89 286 89 184 231q-56 142-184 231t-286 89z" />
<glyph unicode="&#xf020c;" glyph-name="facebook" d="M512 808q-116 0-214-57t-155-155-57-214q0-106 47-197t129-151 184-74v298h-108v124h108v94q0 78 43 122t117 44q48 0 96-8v-106h-54q-36 0-54-20-16-18-16-46v-80h120l-20-124h-100v-298q104 16 186 76t128 151 46 195q0 116-57 214t-155 155-214 57z" />
<glyph unicode="&#xf0214;" glyph-name="file" d="M554 512v234l236-234h-236zM256 810q-36 0-61-25t-25-59v-684q0-34 25-59t61-25h512q36 0 61 25t25 59v512l-256 256h-342z" />
<glyph unicode="&#xf0219;" glyph-name="file-document" d="M554 512h236l-236 234v-234zM256 810h342l256-256v-512q0-34-25-59t-61-25h-512q-36 0-61 25t-25 59v684q0 34 25 59t61 25zM640 128v86h-384v-86h384zM768 298v86h-512v-86h512z" />
<glyph unicode="&#xf021a;" glyph-name="text-box" d="M598 170h-300v86h300v-86zM726 342h-428v84h428v-84zM726 512h-428v86h428v-86zM810 768h-596q-36 0-61-25t-25-61v-596q0-36 25-61t61-25h596q36 0 61 25t25 61v596q0 36-25 61t-61 25z" />
<glyph unicode="&#xf0224;" glyph-name="file-outline" d="M598 810h-342q-36 0-61-25t-25-59v-684q0-34 25-59t61-25h512q36 0 61 25t25 59v512zM768 42h-512v684h298v-214h214v-470z" />
<glyph unicode="&#xf023e;" glyph-name="flag-variant-outline" d="M256 768q18 0 30-12t12-30v-38q92 38 172 38 46 0 80-16 20-10 50-34 22-18 36-26 20-10 46-10 80 0 134 42 26 22 38 44v0-342l-10-14q-12-16-28-28-24-20-52-30-38-14-83-14t-79 16q-20 10-50 34-22 18-36 26-20 10-46 10-44 0-82-14-28-10-52-28-16-14-28-30l-10-14v-298h-84v726q0 18 12 30t30 12zM298 586v-180l26 16q32 18 64 30 44 18 82 18 28 0 56-14 18-8 50-29t50-29q28-14 56-14 38 0 60 12 16 6 22 20l4 10v150l-26-10q-32-12-60-12t-56 14q-18 8-50 29t-50 29q-28 14-56 14-54 0-118-26-32-14-54-28v0z" />
<glyph unicode="&#xf0240;" glyph-name="flag-variant" d="M256 768q18 0 30-12t12-30v-38q92 38 172 38 46 0 80-16 20-10 50-34 22-18 36-26 20-10 46-10 80 0 134 42 26 22 38 44v0-342l-10-14q-12-16-28-28-24-20-52-30-38-14-83-14t-79 16q-20 10-50 34-22 18-36 26-20 10-46 10-44 0-82-14-28-10-52-28-16-14-28-30l-10-14v-298h-84v726q0 18 12 30t30 12z" />
<glyph unicode="&#xf024b;" glyph-name="folder" d="M426 726h-256q-34 0-59-25t-25-61v-512q0-36 25-61t59-25h684q34 0 59 25t25 61v426q0 36-25 61t-59 25h-342z" />
<glyph unicode="&#xf0256;" glyph-name="folder-outline" d="M854 128h-684v426h684v-426zM854 640h-342l-86 86h-256q-34 0-59-25t-25-61v-512q0-36 25-61t59-25h684q34 0 59 25t25 61v426q0 36-25 61t-59 25z" />
<glyph unicode="&#xf0278;" glyph-name="format-line-spacing" d="M426 342h512v84h-512v-84zM426 86h512v84h-512v-84zM426 598h512v84h-512v-84zM256 598h106l-148 148-150-148h106v-428h-106l150-148 148 148h-106v428z" />
<glyph unicode="&#xf0279;" glyph-name="format-list-bulleted" d="M298 682h598v-84h-598v84zM298 342v84h598v-84h-598zM170 704q28 0 46-19t18-45-18-45-45-19-46 19-19 45 19 45 45 19zM170 448q28 0 46-19t18-45-18-45-45-19-46 19-19 45 19 45 45 19zM298 86v84h598v-84h-598zM170 192q28 0 46-19t18-45-18-45-45-19-46 19-19 45 19 45 45 19z" />
<glyph unicode="&#xf027b;" glyph-name="format-list-numbered" d="M298 342v84h598v-84h-598zM298 86v84h598v-84h-598zM298 598v84h598v-84h-598zM128 554v128h-42v44h84v-172h-42zM86 170v44h128v-172h-128v44h84v20h-42v44h42v20h-84zM182 470q12 0 22-10t10-23-10-21l-70-74h80v-44h-128v40l84 88h-84v44h96z" />
<glyph unicode="&#xf028d;" glyph-name="forward" d="M512 554v172l342-342-342-342v172h-342v340h342z" />
<glyph unicode="&#xf02a1;" glyph-name="gift-outline" d="M938 384v-342q0-34-25-59t-59-25h-684q-34 0-59 25t-25 59v342q-18 0-31 12t-13 30v128q0 36 25 61t61 25h136q-8 20-8 42 0 54 37 91t91 37q32 0 59-14t45-38v0l24-32 24 32q18 24 45 38t59 14q54 0 91-37t37-91q0-22-8-42h136q36 0 61-25t25-61v-128q0-18-13-30t-31-12zM170 42h300v342h-300v-342zM854 42v342h-300v-342h300zM384 726q-18 0-30-13t-12-31 12-30 30-12 30 12 12 30-12 31-30 13zM640 726q-18 0-30-13t-12-31 12-30 30-12 30 12 12 30-12 31-30 13zM128 554v-84h342v84h-342zM554 554v-84h342v84h-342z" />
<glyph unicode="&#xf02ad;" glyph-name="google" d="M910 422h-390v-116h278q-10-114-96-178-76-54-182-54-82 0-152 40t-112 111-42 158 41 158 111 112 153 41 155-42q36-20 56-42v0l80 84-18 18q-26 22-58 40-42 26-92 40-60 18-126 18-118 0-218-60-96-58-154-157t-58-208 56-208 152-157q104-62 228-62 114 0 204 48t141 137 51 203q0 48-8 76v0z" />
<glyph unicode="&#xf02b6;" glyph-name="google-drive" d="M328 746l-278-490 146-256 278 490zM416 256l-148-256h560l146 256h-558zM950 298l-292 512h-292l292-512h292z" />
<glyph unicode="&#xf02c7;" glyph-name="hand-pointing-right" d="M896 512q18 0 30-12t12-30-12-31-30-13h-190l-6-50-94-212q-6-16-22-26t-36-10h-186q-24 0-44 20t-20 44v278q0 24 20 42l178 210 34-32q12-14 12-32v-10l-72-136h426zM86 128v342h128v-342h-128z" />
<glyph unicode="&#xf02d1;" glyph-name="heart1" d="M512-14l-62 56q-138 124-192 180-86 88-126 156-46 78-46 156 0 64 31 118t85 85 118 31q56 0 106-24t86-64q36 40 86 64t106 24q64 0 118-31t85-85 31-118q0-78-46-156-40-68-126-156-54-56-192-180z" />
<glyph unicode="&#xf02d6;" glyph-name="help" d="M426 86h128v-128h-128v128zM512 810q110-4 182-72 66-64 71-160t-61-180q-18-22-64-56-42-34-56-50-20-24-26-58-4-20-4-64h-128q0 70 4 98 6 48 26 76 12 20 36 40 14 10 43 29t41 27q50 48 60 103t-23 95-101 44q-54 0-91-37t-37-91h-128q0 70 34 129t93 93 129 34z" />
<glyph unicode="&#xf02d7;" glyph-name="help-circle" d="M642 416l-38-40q-26-26-36-48-14-28-14-72h-84v22q0 70 50 120l52 54q26 24 26 60t-25 61-61 25-61-25-25-61h-84q0 70 50 120t120 50 120-50 50-120q0-56-40-96zM554 86h-84v84h84v-84zM512 810q-84 0-163-32t-139-92-92-139-32-163 32-163 92-139 139-92 163-32 163 32 139 92 92 139 32 163q0 116-57 214t-155 155-214 57z" />
<glyph unicode="&#xf02dc;" glyph-name="home" d="M426 42v256h172v-256h212v342h128l-426 384-426-384h128v-342h212z" />
<glyph unicode="&#xf02de;" glyph-name="home-variant" d="M512 768l342-256v-512h-214v298h-256v-298h-214v512z" />
<glyph unicode="&#xf02e8;" glyph-name="human-male-female" d="M320 810q36 0 61-25t25-60-25-60-61-25-61 25-25 60 25 60 61 25zM256 598h128q36 0 61-25t25-61v-234h-64v-320h-172v320h-64v234q0 36 25 61t61 25zM704 810q36 0 61-25t25-60-25-60-61-25-61 25-25 60 25 60 61 25zM640-42v256h-128l110 324q8 26 31 43t51 17 51-17 31-43l110-324h-128v-256h-128z" />
<glyph unicode="&#xf02fc;" glyph-name="information" d="M554 512h-84v86h84v-86zM554 170h-84v256h84v-256zM512 810q-84 0-163-32t-139-92-92-139-32-163 32-163 92-139 139-92 163-32 163 32 139 92 92 139 32 163-32 163-92 139-139 92-163 32z" />
<glyph unicode="&#xf02fd;" glyph-name="information-outline" d="M470 512h84v86h-84v-86zM512 42q-92 0-171 46t-125 125-46 171 46 171 125 125 171 46 171-46 125-125 46-171-46-171-125-125-171-46zM512 810q-84 0-163-32t-139-92-92-139-32-163 32-163 92-139 139-92 163-32 163 32 139 92 92 139 32 163-32 163-92 139-139 92-163 32zM470 170h84v256h-84v-256z" />
<glyph unicode="&#xf02fe;" glyph-name="instagram" d="M332 810h360q66 0 123-33t90-90 33-123v-360q0-66-33-123t-90-90-123-33h-360q-66 0-123 33t-90 90-33 123v360q0 66 33 123t90 90 123 33zM324 726q-64 0-109-45t-45-109v-376q0-64 45-109t109-45h376q64 0 109 45t45 109v376q0 64-45 109t-109 45h-376zM736 662q22 0 38-16t16-38-16-38-38-16-38 16-16 38 16 38 38 16zM512 598q58 0 107-29t78-78 29-107-29-107-78-78-107-29-107 29-78 78-29 107 29 107 78 78 107 29zM512 512q-54 0-91-37t-37-91 37-91 91-37 91 37 37 91-37 91-91 37z" />
<glyph unicode="&#xf0306;" glyph-name="key" d="M298 298q-34 0-59 25t-25 61 25 61 60 25 60-25 25-61-25-61-61-25zM538 470q-26 74-92 122t-148 48q-68 0-127-35t-94-93-35-128 35-128 94-93 127-35q82 0 148 48t92 122h144v-170h172v170h128v172h-444z" />
<glyph unicode="&#xf030b;" glyph-name="key-variant" d="M938 128v-170h-170v128h-128v128h-128l-96 96q-36-12-74-12-52 0-99 20t-83 56-55 83-19 97q0 70 34 129t93 93 128 34 128-34 94-93 35-129q0-38-12-74zM298 682q-34 0-59-25t-25-60 25-60 60-25 60 25 25 60-25 60-61 25z" />
<glyph unicode="&#xf0322;" glyph-name="laptop" d="M170 640h684v-426h-684v426zM854 128q34 0 59 25t25 61v426q0 36-25 61t-59 25h-684q-34 0-59-25t-25-61v-426q0-36 25-61t59-25h-170v-86h1024v86h-170z" />
<glyph unicode="&#xf0327;" glyph-name="launch" d="M598 768v-86h152l-418-418 60-60 418 418v-152h86v298h-298zM810 86h-596v596h298v86h-298q-36 0-61-25t-25-61v-596q0-36 25-61t61-25h596q36 0 61 25t25 61v298h-86v-298z" />
<glyph unicode="&#xf032a;" glyph-name="leaf" d="M726 554q-172-38-288-128-96-76-164-194-42-72-100-218l-12-28 82-28 40 98q36-14 58-14 160 0 290 114 104 90 184 250 56 112 96 248 18 68 26 114v0q-20-40-128-68-64-16-232-40-134-18-194-30-98-20-172-80-62-52-96-122-30-60-30-108 0-54 36-112 20-30 38-48v0q38 110 112 192 62 70 146 118 68 38 148 60 58 16 114 22z" />
<glyph unicode="&#xf0339;" glyph-name="link-variant" d="M452 324q12-12 12-30t-12-31-30-13-30 14q-42 40-56 95t0 110 56 95v0l150 152q42 40 97 55t110 0 95-55 55-95 0-110-55-97l-64-64q2 54-16 104l20 20q38 38 38 91t-38 91-91 38-91-38l-150-152q-38-36-38-89t38-91zM572 504q12 14 30 14t30-14q42-40 56-95t0-110-56-95l-150-152q-42-40-97-55t-110 0-95 55-55 95 0 110 55 97l64 64q-2-54 16-104l-20-20q-38-38-38-91t38-91 91-38 91 38l150 152q38 36 38 89t-38 91q-12 12-12 30t12 30z" />
<glyph unicode="&#xf033b;" glyph-name="linkedin" d="M810 768q36 0 61-25t25-61v-596q0-36-25-61t-61-25h-596q-36 0-61 25t-25 61v596q0 36 25 61t61 25h596zM790 106v226q0 58-41 99t-99 41q-28 0-56-16t-42-40v48h-120v-358h120v212q0 24 17 41t42 17 42-17 17-41v-212h120zM294 530q30 0 51 21t21 51-21 51-51 21-51-21-21-51 21-51 51-21zM352 106v358h-118v-358h118z" />
<glyph unicode="&#xf033e;" glyph-name="lock" d="M512 170q36 0 61 25t25 61-25 61-61 25-61-25-25-61 25-61 61-25zM768 554q36 0 61-25t25-59v-428q0-34-25-59t-61-25h-512q-36 0-61 25t-25 59v428q0 34 25 59t61 25h42v86q0 58 29 107t78 78 107 29 107-29 78-78 29-107v-86h42zM512 768q-54 0-91-37t-37-91v-86h256v86q0 54-37 91t-91 37z" />
<glyph unicode="&#xf033f;" glyph-name="lock-open" d="M768 554q36 0 61-25t25-59v-428q0-34-25-59t-61-25h-512q-36 0-61 25t-25 59v428q0 34 25 59t61 25h384v86q0 54-37 91t-91 37-91-37-37-91h-86q0 58 29 107t78 78 107 29 107-29 78-78 29-107v-86h42zM512 170q36 0 61 25t25 61-25 61-61 25-61-25-25-61 25-61 61-25z" />
<glyph unicode="&#xf0340;" glyph-name="lock-open-outline" d="M768 42v428h-512v-428h512zM768 554q36 0 61-25t25-59v-428q0-34-25-59t-61-25h-512q-36 0-61 25t-25 59v428q0 34 25 59t61 25h384v86q0 54-37 91t-91 37-91-37-37-91h-86q0 58 29 107t78 78 107 29 107-29 78-78 29-107v-86h42zM512 170q-36 0-61 25t-25 61 25 61 61 25 61-25 25-61-25-61-61-25z" />
<glyph unicode="&#xf0341;" glyph-name="lock-outline" d="M512 170q-36 0-61 25t-25 61 25 61 61 25 61-25 25-61-25-61-61-25zM768 42v428h-512v-428h512zM768 554q36 0 61-25t25-59v-428q0-34-25-59t-61-25h-512q-36 0-61 25t-25 59v428q0 34 25 59t61 25h42v86q0 58 29 107t78 78 107 29 107-29 78-78 29-107v-86h42zM512 768q-54 0-91-37t-37-91v-86h256v86q0 54-37 91t-91 37z" />
<glyph unicode="&#xf0349;" glyph-name="magnify" d="M406 768q74 0 138-37t101-101 37-140q0-102-66-180l12-12h34l212-212-64-64-212 212v34l-12 12q-78-66-180-66-76 0-140 37t-101 101-37 139 37 139 101 101 140 37zM406 682q-80 0-136-56t-56-136 56-136 136-56 136 56 56 136-56 136-136 56z" />
<glyph unicode="&#xf034b;" glyph-name="magnify-plus" d="M384 810q82 0 150-40t108-108 40-150q0-100-58-178l34-36h24l256-256-84-84-256 256v24l-36 34q-78-58-178-58-82 0-150 40t-108 108-40 150 40 150 108 108 150 40zM342 682v-128h-128v-84h128v-128h84v128h128v84h-128v128h-84z" />
<glyph unicode="&#xf034d;" glyph-name="map" d="M640 86l-256 90v506l256-90v-506zM874 768h-6l-228-90-256 90-240-82q-16-4-16-20v-644q0-10 6-16t13-6 9 2l228 88 256-90 240 82q16 6 16 20v644q0 10-6 16t-16 6z" />
<glyph unicode="&#xf034e;" glyph-name="map-marker" d="M512 406q-44 0-75 31t-31 75 31 75 75 31 75-31 31-75-31-75-75-31zM512 810q-82 0-150-40t-108-108-40-148 46-184q38-82 102-180 48-68 104-138l46-54 46 54q56 70 104 138 64 98 102 180 46 104 46 184t-40 148-108 108-150 40z" />
<glyph unicode="&#xf0352;" glyph-name="map-marker-radius" d="M512 810q70 0 129-34t93-92 34-125-40-157q-32-70-88-152-40-60-88-118l-40-46-40 46q-48 58-88 118-56 82-88 152-40 90-40 157t34 125 93 92 129 34zM512 640q-36 0-61-25t-25-60 25-60 61-25 61 25 25 60-25 60-61 25zM854 86q0-48-46-87t-125-62-171-23-171 23-125 62-46 87q0 40 36 75t98 59l26-38q-34-14-54-34t-20-42q0-28 34-53t93-39 129-14 129 14 93 39 34 53q0 22-20 42t-54 34l26 38q62-24 98-59t36-75z" />
<glyph unicode="&#xf0353;" glyph-name="margin" d="M854 726v-214l-64 64-556-554-84 84 554 556-64 64h214zM726 42q-54 0-91 38t-37 90v86q0 54 37 91t90 37 91-37 38-91v-86q0-52-38-90t-90-38zM726 298q-18 0-31-12t-13-30v-86q0-18 13-30t31-12 30 12 12 30v86q0 18-12 30t-30 12zM298 384q-52 0-90 37t-38 91v86q0 52 38 90t91 38 90-38 37-90v-86q0-54-37-91t-91-37zM298 640q-18 0-30-12t-12-30v-86q0-18 12-30t30-12 31 12 13 30v86q0 18-13 30t-31 12z" />
<glyph unicode="&#xf035c;" glyph-name="menu" d="M128 640h768v-86h-768v86zM128 426h768v-84h-768v84zM128 214h768v-86h-768v86z" />
<glyph unicode="&#xf035d;" glyph-name="menu-down" d="M298 470l214-214 214 214h-428z" />
<glyph unicode="&#xf035e;" glyph-name="menu-left" d="M598 598l-214-214 214-214v428z" />
<glyph unicode="&#xf035f;" glyph-name="menu-right" d="M426 170l214 214-214 214v-428z" />
<glyph unicode="&#xf0360;" glyph-name="menu-up" d="M298 256l214 214 214-214h-428z" />
<glyph unicode="&#xf03d8;" glyph-name="palette" d="M746 384q-26 0-45 19t-19 45 19 45 46 19 45-19 18-45-18-45-46-19zM618 554q-26 0-45 19t-19 46 19 45 46 18 45-18 18-45-18-46-46-19zM406 554q-28 0-46 19t-18 46 18 45 45 18 46-18 19-45-19-46-45-19zM278 384q-28 0-46 19t-18 45 18 45 45 19 46-19 19-45-19-45-45-19zM512 768q-104 0-192-52t-140-140-52-192 52-192 140-140 192-52q26 0 45 19t19 44-16 44-16 44 18 44 46 19h74q58 0 107 28t78 77 29 107q0 94-52 172t-140 124-192 46z" />
<glyph unicode="&#xf03f0;" glyph-name="percent" d="M790 746l-640-640 84-84 640 640zM298 726q-52 0-90-38t-38-91 38-90 91-37 90 37 37 90-37 91-91 38zM726 298q-54 0-91-37t-37-90 37-91 90-38 91 38 38 91-38 90-90 37z" />
<glyph unicode="&#xf03f2;" glyph-name="phone" d="M282 436q46-90 119-163t163-119l94 94q18 18 44 10 72-24 152-24 18 0 30-12t12-30v-150q0-18-12-30t-30-12q-144 0-278 55t-236 157-157 236-55 278q0 18 12 30t30 12h150q18 0 30-12t12-30q0-80 24-152 8-26-10-44z" />
<glyph unicode="&#xf0407;" glyph-name="pinterest" d="M386-24q64-18 126-18 84 0 163 32t139 92 92 139 32 163-32 163-92 139-139 92-163 32-163-32-139-92-92-139-32-163q0-134 76-243t198-155q-10 80 0 126l50 210-8 18q-6 22-6 46 0 44 24 74t56 30q26 0 40-17t14-43-20-86q-14-36-18-56-6-32 14-55t52-23q56 0 95 55t39 141q0 76-50 124t-128 48q-88 0-142-56-50-54-50-128 0-28 8-54t24-44q4-4 2-12l-12-48q0-4-3-6t-9 2q-40 18-64 68-22 46-22 96 0 70 32 129t94 91q66 38 154 38 72 0 132-32t94-88 34-127-28-132-78-96-114-35q-30 0-58 14t-38 34l-30-102q-12-46-54-114v0z" />
<glyph unicode="&#xf040a;" glyph-name="play" d="M342 676v-596l468 298z" />
<glyph unicode="&#xf0415;" glyph-name="plus" d="M810 342h-256v-256h-84v256h-256v84h256v256h84v-256h256v-84z" />
<glyph unicode="&#xf0416;" glyph-name="plus-box" d="M726 342h-172v-172h-84v172h-172v84h172v172h84v-172h172v-84zM810 768h-596q-36 0-61-25t-25-61v-596q0-36 25-61t61-25h596q36 0 61 25t25 61v596q0 36-25 61t-61 25z" />
<glyph unicode="&#xf0417;" glyph-name="plus-circle" d="M726 342h-172v-172h-84v172h-172v84h172v172h84v-172h172v-84zM512 810q-84 0-163-32t-139-92-92-139-32-163 32-163 92-139 139-92 163-32 163 32 139 92 92 139 32 163-32 163-92 139-139 92-163 32z" />
<glyph unicode="&#xf0419;" glyph-name="plus-circle-outline" d="M512 42q-92 0-171 46t-125 125-46 171 46 171 125 125 171 46 171-46 125-125 46-171-46-171-125-125-171-46zM512 810q-84 0-163-32t-139-92-92-139-32-163 32-163 92-139 139-92 163-32 163 32 139 92 92 139 32 163-32 163-92 139-139 92-163 32zM554 598h-84v-172h-172v-84h172v-172h84v172h172v84h-172v172z" />
<glyph unicode="&#xf041f;" glyph-name="poll" d="M128-42v596h170v-596h-170zM426-42v852h172v-852h-172zM726-42v340h170v-340h-170z" />
<glyph unicode="&#xf043d;" glyph-name="radiobox-blank" d="M512 42q-92 0-171 46t-125 125-46 171 46 171 125 125 171 46 171-46 125-125 46-171-46-171-125-125-171-46zM512 810q-84 0-163-32t-139-92-92-139-32-163 32-163 92-139 139-92 163-32 163 32 139 92 92 139 32 163-32 163-92 139-139 92-163 32z" />
<glyph unicode="&#xf043e;" glyph-name="radiobox-marked" d="M512 42q-92 0-171 46t-125 125-46 171 46 171 125 125 171 46 171-46 125-125 46-171-46-171-125-125-171-46zM512 810q-84 0-163-32t-139-92-92-139-32-163 32-163 92-139 139-92 163-32 163 32 139 92 92 139 32 163-32 163-92 139-139 92-163 32zM512 598q-58 0-107-29t-78-78-29-107 29-107 78-78 107-29 107 29 78 78 29 107-29 107-78 78-107 29z" />
<glyph unicode="&#xf0450;" glyph-name="refresh" d="M754 626q-48 46-110 73t-132 27q-92 0-171-46t-125-125-46-171 46-171 125-125 171-46q118 0 209 72t121 184h-88q-28-74-94-122t-148-48q-70 0-129 34t-93 93-34 129 34 129 93 93 129 34q52 0 98-20t82-56l-138-138h300v300z" />
<glyph unicode="&#xf0459;" glyph-name="replay" d="M512 682v172l-214-214 214-214v172q70 0 129-35t93-94 34-128-34-128-93-93-129-34-129 34-93 93-34 129h-86q0-94 46-172t125-124 171-46 171 46 125 124 46 171-46 171-125 124-171 46z" />
<glyph unicode="&#xf046a;" glyph-name="routes" d="M470 470h-256l-86 84 86 86h256v128l42 42 42-42v-42h256l86-86-86-86h-256v-84h256l86-86-86-86h-256v-256q36 0 61-25t25-59h-256q0 34 25 59t61 25v428z" />
<glyph unicode="&#xf046d;" glyph-name="ruler" d="M60 112l74 76 62-60 44 44-60 60 60 62 106-106 46 44-106 106 60 60 60-60 46 46-60 60 60 60 106-106 44 46-104 106 60 60 60-60 46 46-62 60 62 60 104-106 46 46-106 106 76 74 180-180-724-724z" />
<glyph unicode="&#xf046f;" glyph-name="sale" d="M796 774l26-164 150-76-76-150 76-150-152-76-26-164-166 26-118-118-118 120-164-28-28 166-148 76 76 150-76 148 150 76 26 164 166-28 118 120 118-118zM406 598q-28 0-46-19t-18-46 18-45 45-18 46 18 19 45-19 46-45 19zM618 298q-26 0-45-18t-19-45 19-46 46-19 45 19 18 46-18 45-46 18zM358 170l368 368-60 60-368-368z" />
<glyph unicode="&#xf0477;" glyph-name="script-outline" d="M640 42q18 0 30 13t12 31v640h-340q-18 0-31-13t-13-31v-468h-84v468q0 54 37 91t91 37h468q54 0 91-37t37-91v-42h-84v42q0 18-13 31t-31 13-30-13-12-31v-596q0-54-37-91t-91-37h-426q-54 0-91 37t-37 91v42h468q0-36 25-61t61-25z" />
<glyph unicode="&#xf047a;" glyph-name="seal" d="M870 70l-172 58-58-170-132 256-124-256-58 170-172-58 124 256q-64 82-64 186 0 82 40 150t108 108 150 40 150-40 108-108 40-150q0-104-64-186zM298 512l116-58-8-128 106 72 106-70-6 126 114 58-116 58 8 126-106-70-106 72 6-128z" />
<glyph unicode="&#xf0483;" glyph-name="security" d="M512 384h298q-16-134-98-239t-200-141v380h-298v244l298 132v-376zM512 854l-384-172v-256q0-116 50-224t138-184 196-104q108 28 196 104t138 184 50 224v256z" />
<glyph unicode="&#xf0493;" glyph-name="cog" d="M512 234q-62 0-106 44t-44 106 44 106 106 44 106-44 44-106-44-106-106-44zM830 342q2 24 2 42t-2 42l90 70q6 6 7 13t-3 15l-86 148q-2 6-10 9t-16-1l-106-42q-36 28-72 42l-16 112q0 8-6 13t-14 5h-172q-8 0-14-5t-6-13l-16-112q-36-14-72-42l-106 42q-8 4-16 1t-10-9l-86-148q-4-8-3-15t7-13l90-70q-2-24-2-42t2-42l-90-70q-6-6-7-13t3-15l86-148q2-6 10-9t16 1l106 42q36-28 72-42l16-112q0-8 6-13t14-5h172q8 0 14 5t6 13l16 112q38 16 72 42l106-42q8-4 16-1t10 9l86 148q4 8 3 15t-7 13z" />
<glyph unicode="&#xf0499;" glyph-name="shield-outline" d="M896 426q0-116-50-224t-138-184-196-104q-108 28-196 104t-138 184-50 224v256l384 172 384-172v-256zM512 0q78 22 147 86t110 152 41 180v210l-298 132-298-132v-210q0-92 41-180t110-152 147-86z" />
<glyph unicode="&#xf04cd;" glyph-name="stairs" d="M640 682v-170h-170v-170h-172v-172h-170v-128h298v172h172v170h170v170h170v128h-298z" />
<glyph unicode="&#xf04ce;" glyph-name="star" d="M512 160l264-160-70 300 232 202-306 26-120 282-120-282-306-26 232-202-70-300z" />
<glyph unicode="&#xf04d0;" glyph-name="star-half-full" d="M512 238v398l72-172 188-16-142-124 42-182zM938 502l-306 26-120 282-120-282-306-26 232-202-70-300 264 160 264-160-70 300z" />
<glyph unicode="&#xf04d2;" glyph-name="star-outline" d="M512 240l-160-98 42 184-142 122 188 16 72 172 72-172 188-16-142-122 42-184zM938 502l-306 26-120 282-120-282-306-26 232-202-70-300 264 160 264-160-70 300z" />
<glyph unicode="&#xf04e6;" glyph-name="sync" d="M512 128q-70 0-129 34t-93 93-34 129q0 64 30 120l-62 62q-54-84-54-182 0-92 46-171t125-125 171-46v-128l170 172-170 170v-128zM512 726v128l-170-172 170-170v128q70 0 129-34t93-93 34-129q0-64-30-120l62-62q54 84 54 182 0 92-46 171t-125 125-171 46z" />
<glyph unicode="&#xf04f9;" glyph-name="tag" d="M234 598q-26 0-45 18t-19 45 19 46 46 19 45-19 18-46-18-45-46-18zM914 402l-384 384q-26 24-60 24h-300q-34 0-59-25t-25-59v-300q0-36 24-60l384-384q26-24 61-24t59 24l300 300q24 24 24 59t-24 61z" />
<glyph unicode="&#xf04fb;" glyph-name="tag-multiple" d="M234 512q28 0 46 19t18 45-18 45-45 19-46-19-19-45 19-45 45-19zM742 402q26-26 26-61t-26-59l-212-214q-26-26-61-26t-61 26l-298 298q-24 26-24 60v214q0 36 25 61t59 25h214q36 0 60-26zM578 652l42 44 294-294q24-24 24-60t-24-60l-230-230-42 42 244 248z" />
<glyph unicode="&#xf04fc;" glyph-name="tag-outline" d="M914 402l-384 384q-26 24-60 24h-300q-34 0-59-25t-25-59v-300q0-34 24-60l384-384q26-24 61-24t59 24l300 300q24 24 24 59t-24 61zM554 42l-384 384v300h300l384-384zM278 682q26 0 45-18t19-45-19-46-46-19-45 19-18 46 18 45 46 18z" />
<glyph unicode="&#xf0502;" glyph-name="television" d="M896 170h-768v512h768v-512zM896 768h-768q-36 0-61-25t-25-61v-512q0-34 25-59t61-25h214v-86h340v86h214q36 0 61 25t25 59v512q0 36-25 61t-61 25z" />
<glyph unicode="&#xf0503;" glyph-name="television-guide" d="M896 170v512h-768v-512h768zM896 768q36 0 61-25t25-61v-512q0-34-25-59t-61-25h-214v-86h-340v86h-214q-36 0-61 25t-25 59v512q0 36 25 61t61 25h768zM214 598h256v-172h-256v172zM214 342h256v-86h-256v86zM554 598h256v-86h-256v86zM554 426h256v-170h-256v170z" />
<glyph unicode="&#xf0511;" glyph-name="thumb-down" d="M810 256h172v512h-172v-512zM640 768h-384q-26 0-47-14t-31-38l-130-300q-6-16-6-32v-86q0-34 25-59t61-25h270l-42-196v-12q0-28 18-46l46-46 280 282q26 24 26 60v426q0 36-25 61t-61 25z" />
<glyph unicode="&#xf0512;" glyph-name="thumb-down-outline" d="M810 256v512h172v-512h-172zM640 768q36 0 61-25t25-61v-426q0-36-26-60l-280-282-46 46q-18 18-18 46v12l42 196h-270q-36 0-61 25t-25 59v86q0 16 6 32l130 300q10 24 31 38t47 14h384zM640 682h-386l-126-298v-86h374l-48-226 186 186v424z" />
<glyph unicode="&#xf0513;" glyph-name="thumb-up" d="M982 470q0 34-25 59t-61 25h-270l42 196v14q0 26-18 44l-46 46-280-282q-26-24-26-60v-426q0-36 25-61t61-25h384q26 0 47 14t31 38l130 300q6 16 6 32v86zM42 0h172v512h-172v-512z" />
<glyph unicode="&#xf0514;" glyph-name="thumb-up-outline" d="M214 512v-512h-172v512h172zM384 0q-36 0-61 25t-25 61v426q0 36 26 60l280 282 46-46q18-18 18-44v-14l-42-196h270q36 0 61-25t25-59v-86q0-16-6-32l-130-300q-10-24-31-38t-47-14h-384zM384 86h386l126 298v86h-376l50 226-186-186v-424z" />
<glyph unicode="&#xf053b;" glyph-name="trophy-variant" d="M726 726v84h-428v-84h-212v-300q0-34 25-59t59-25h132q14-64 59-109t109-59v-92q-44-6-74-28-24-16-38-42-10-18-14-38l-2-16h340l-2 16q-4 20-14 38-14 26-38 42-30 22-74 28v92q64 14 109 59t59 109h132q34 0 59 25t25 59v300h-212zM170 426v214h128v-214h-128zM854 426h-128v214h128v-214z" />
<glyph unicode="&#xf053c;" glyph-name="trophy-variant-outline" d="M726 726v84h-428v-84h-212v-300q0-34 25-59t59-25h132q14-64 59-109t109-59v-92q-44-6-74-28-24-16-38-42-10-18-14-38l-2-16h340l-2 16q-4 20-14 38-14 26-38 42-30 22-74 28v92q64 14 109 59t59 109h132q34 0 59 25t25 59v300h-212zM170 426v214h128v-214h-128zM640 384q0-52-38-90t-90-38-90 38-38 90v342h256v-342zM854 426h-128v214h128v-214z" />
<glyph unicode="&#xf0544;" glyph-name="twitter" d="M958 640q-48-22-104-30 58 36 80 102-54-32-116-44-54 58-136 58-74 0-128-54t-54-130q0-20 6-42-112 6-211 57t-167 135q-24-42-24-91t22-89 58-64q-42 0-82 22v-2q0-66 42-116t104-64q-22-6-48-6-16 0-34 4 18-56 65-91t105-37q-98-78-226-78-22 0-44 2 128-82 280-82 160 0 284 82 114 72 178 196 60 118 60 242l-2 24q54 38 92 96z" />
<glyph unicode="&#xf0565;" glyph-name="shield-check" d="M426 170l-170 172 60 60 110-110 282 280 60-60zM512 854l-384-172v-256q0-116 50-224t138-184 196-104q108 28 196 104t138 184 50 224v256z" />
<glyph unicode="&#xf0571;" glyph-name="view-headline" d="M170 682v-84h726v84h-726zM170 426h726v86h-726v-86zM170 86h726v84h-726v-84zM170 256h726v86h-726v-86z" />
<glyph unicode="&#xf05a3;" glyph-name="whatsapp" d="M514 810q-114 0-212-57t-155-154-57-211 58-212l-60-218 224 58q94-52 202-52 114 0 211 57t154 154 57 213q0 84-32 161t-91 137-137 92-162 32zM514 740q70 0 134-27t114-77 77-114 27-134q0-96-48-177t-129-128-177-47-178 50l-12 6-132-34 34 130-8 12q-54 86-54 188 0 96 48 176t128 128 176 48zM364 584q-16 0-28-14l-2-2q-36-38-36-86t42-106l4-8q82-114 178-154 28-14 59-23t69-5q16 4 40 19t30 32 8 31-1 18-17 12l-40 20q-28 14-36 16t-13 2-11-8q-8-12-32-40-10-10-24-4l-6 4q-46 18-78 48t-60 74q-6 12 4 22t16 17 10 15l2 4q4 8-2 18l-32 78q-6 12-10 15t-12 3z" />
<glyph unicode="&#xf05ac;" glyph-name="wikipedia" d="M638 88l-108 256-48-90q-58-112-84-166h-20q-38 88-114 260l-78 178q-12 30-44 61t-56 31v20h216v-20q-24 0-45-13t-13-31q16-36 96-220l70-166q30 56 102 192-10 18-49 107t-49 105q-16 26-74 26v20h190v-18q-22-2-34-10t-6-26q14-26 36-74l28-64q38 74 64 134 8 20-4 29t-46 9v20h164v-18q-24-2-45-13t-33-29l-78-164q6-16 74-168l18-42 164 378q-8 20-32 30-16 6-32 6v20l170-2v-18q-52 0-74-52-28-64-168-388l-38-90h-20z" />
<glyph unicode="&#xf05b5;" glyph-name="account-hard-hat" d="M512 256q-92 0-171-23t-125-62-46-85v-86h684v86q0 46-46 85t-125 62-171 23zM342 512q0-70 50-120t120-50 120 50 50 120h-340zM490 810q-8 0-14-6t-6-14v-128h-44v106l-14-8q-18-10-34-26-20-22-32-48-16-36-16-78l-8-4q-10-4-16-14-8-14-8-36h428q-2 30-18 46-8 6-14 8v0q0 78-48 126-24 24-48 34v0-106h-44v128q0 8-5 14t-15 6h-44z" />
<glyph unicode="&#xf05b7;" glyph-name="wrench" d="M968 86l-388 388q30 74 13 154t-78 141-149 76-166-21l184-184-128-128-188 184q-38-78-23-165t79-151q60-60 140-77t154 13l388-388q14-14 31-14t29 14l98 98q16 12 17 31t-13 29z" />
<glyph unicode="&#xf05c3;" glyph-name="youtube" d="M426 256l222 128-222 128v-256zM920 590q8-30 12-80t4-90l2-36q0-138-18-206-16-58-74-74-30-8-112-12-80-4-154-4l-68-2q-266 0-334 18-58 16-74 74-8 30-12 80t-4 90l-2 36q0 138 18 206 16 58 74 74 30 8 112 12 80 4 154 4l68 2q266 0 334-18 58-16 74-74z" />
<glyph unicode="&#xf05d6;" glyph-name="alert-circle-outline" d="M470 256h84v-86h-84v86zM470 598h84v-256h-84v256zM512 810q-116 0-214-57t-155-155-57-214q0-84 32-163t92-139 139-92 163-32 163 32 139 92 92 139 32 163-32 163-92 139-139 92-163 32zM512 42q-92 0-171 46t-125 125-46 171 46 171 125 125 171 46 171-46 125-125 46-171-46-171-125-125-171-46z" />
<glyph unicode="&#xf05da;" glyph-name="book-open-page-variant" d="M810 810l-212-192v-468l212 192v468zM278 682q-68 0-126-14-66-16-110-50v-624q0-8 7-15t15-7l10 2q44 22 100 35t104 13q68 0 124-16 66-16 110-48 42 26 111 45t123 19q118 0 204-46 2-2 8-2h2q8 0 15 7t7 15v622q-34 26-86 44v-576q-68 20-150 20-54 0-123-18t-111-46v576q-44 34-110 50-56 14-124 14z" />
<glyph unicode="&#xf05e1;" glyph-name="check-circle-outline" d="M512 810q-116 0-214-57t-155-155-57-214 57-214 155-155 214-57 214 57 155 155 57 214-57 214-155 155-214 57zM512 42q-92 0-171 46t-125 125-46 171 46 171 125 125 171 46 171-46 125-125 46-171-46-171-125-125-171-46zM708 572l-282-280-110 110-60-60 170-172 342 342z" />
<glyph unicode="&#xf05ee;" glyph-name="disc" d="M512 298q-36 0-61 25t-25 61 25 61 61 25 61-25 25-61-25-61-61-25zM512 726q-92 0-171-46t-125-125-46-171 46-171 125-125 171-46 171 46 125 125 46 171-46 171-125 125-171 46z" />
<glyph unicode="&#xf05ef;" glyph-name="email-open-outline" d="M898 628l-386 240-386-240q-18-12-29-31t-11-43v-426q0-36 25-61t59-25h684q34 0 59 25t25 61v426q0 24-11 43t-29 31zM854 128h-684v342l342-214 342 214v-342zM512 342l-342 212 342 214 342-214z" />
<glyph unicode="&#xf05f0;" glyph-name="email-variant" d="M512 342l-426 266v32q0 36 25 61t59 25h684q34 0 59-25t25-61v-32zM938 128q0-36-25-61t-59-25h-684q-34 0-59 25t-25 61v380l84-54v-326h684v326l84 54v-380z" />
<glyph unicode="&#xf0625;" glyph-name="help-circle-outline" d="M470 128h84v86h-84v-86zM512 810q-84 0-163-32t-139-92-92-139-32-163 32-163 92-139 139-92 163-32 163 32 139 92 92 139 32 163-32 163-92 139-139 92-163 32zM512 42q-92 0-171 46t-125 125-46 171 46 171 125 125 171 46 171-46 125-125 46-171-46-171-125-125-171-46zM512 640q-70 0-120-50t-50-120h84q0 34 25 59t61 25 61-25 25-59q0-26-16-46-10-12-38-32-36-28-50-50-24-34-24-86h84q0 32 20 58 12 16 44 44t44 46q20 28 20 66 0 70-50 120t-120 50z" />
<glyph unicode="&#xf062e;" glyph-name="tune" d="M128 170v-84h256v84h-256zM128 682v-84h426v84h-426zM554 0v86h342v84h-342v86h-84v-256h84zM298 512v-86h-170v-84h170v-86h86v256h-86zM896 342v84h-426v-84h426zM640 512h86v86h170v84h-170v86h-86v-256z" />
<glyph unicode="&#xf066a;" glyph-name="tune-vertical" d="M298 768h-84v-256h84v256zM810 768h-84v-426h84v426zM128 342h86v-342h84v342h86v84h-256v-84zM640 598h-86v170h-84v-170h-86v-86h256v86zM470 0h84v426h-84v-426zM640 256v-86h86v-170h84v170h86v86h-256z" />
<glyph unicode="&#xf068a;" glyph-name="shield-home" d="M470 342h84v-128h128v212h86l-256 214-256-214h86v-212h128v128zM512 854l384-172v-256q0-116-50-224t-138-184-196-104q-108 28-196 104t-138 184-50 224v256z" />
<glyph unicode="&#xf069f;" glyph-name="format-section" d="M668 708q-62 38-136 36-52 0-86-23t-34-63 40-66q26-18 102-44 92-30 134-64 54-46 54-116 0-42-21-78t-55-60q42-40 42-100 0-84-68-132-60-40-150-40-94-4-176 48l28 64q68-46 150-46 56 0 92 25t36 67-30 68-110 52q-100 36-144 70-54 44-54 112 2 42 25 78t59 56q-42 38-42 96 0 74 60 118t150 44q86 0 158-38zM484 324q70-22 130-56 22 16 33 39t11 49q0 72-104 108-72 24-140 58-24-14-38-39t-14-55 28-56 94-48z" />
<glyph unicode="&#xf06a1;" glyph-name="home-outline" d="M512 654l214-192v-334h-86v256h-256v-256h-86v334zM512 768l-426-384h128v-342h256v256h84v-256h256v342h128z" />
<glyph unicode="&#xf06a7;" glyph-name="publish" d="M214 726v-86h596v86h-596zM214 298h170v-256h256v256h170l-298 300z" />
<glyph unicode="&#xf06bd;" glyph-name="alert-decagram" d="M982 384l-104 118 14 158-154 34-80 136-146-62-146 62-80-136-154-34 14-156-104-120 104-118-14-158 154-36 80-134 146 62 146-62 80 136 154 34-14 158zM554 170h-84v86h84v-86zM554 342h-84v256h84v-256z" />
<glyph unicode="&#xf06c9;" glyph-name="close-outline" d="M128 182l204 202-204 202 182 182 202-204 202 204 182-182-204-202 204-202-182-182-202 204-202-204zM512 324l202-202 60 60-202 202 202 202-60 60-202-202-202 202-60-60 202-202-202-202 60-60z" />
<glyph unicode="&#xf06d0;" glyph-name="eye-outline" d="M512 512q54 0 91-37t37-91-37-91-91-37-91 37-37 91 37 91 91 37zM512 704q158 0 286-89t184-231q-56-142-184-231t-286-89-286 89-184 231q56 142 184 231t286 89zM136 384q52-108 154-171t222-63 222 63 154 171q-52 108-154 171t-222 63-222-63-154-171z" />
<glyph unicode="&#xf06ed;" glyph-name="magnify-plus-outline" d="M662 298l212-212-64-64-212 212v34l-12 12q-78-66-180-66-76 0-140 37t-101 101-37 139 37 139 101 101 139 37 139-37 101-101 37-140q0-102-66-180l12-12h34zM406 298q80 0 136 56t56 136-56 136-136 56-136-56-56-136 56-136 136-56zM512 470h-86v-86h-42v86h-86v42h86v86h42v-86h86v-42z" />
<glyph unicode="&#xf0731;" glyph-name="arrow-left-bold" d="M854 512v-256h-342v-206l-334 334 334 334v-206h342z" />
<glyph unicode="&#xf0734;" glyph-name="arrow-right-bold" d="M170 256v256h342v206l334-334-334-334v206h-342z" />
<glyph unicode="&#xf0737;" glyph-name="arrow-up-bold" d="M640 42h-256v342h-206l334 334 334-334h-206v-342z" />
<glyph unicode="&#xf0765;" glyph-name="checkbox-blank-circle" d="M512 810q-84 0-163-32t-139-92-92-139-32-163 32-163 92-139 139-92 163-32 163 32 139 92 92 139 32 163-32 163-92 139-139 92-163 32z" />
<glyph unicode="&#xf0766;" glyph-name="checkbox-blank-circle-outline" d="M512 42q-92 0-171 46t-125 125-46 171 46 171 125 125 171 46 171-46 125-125 46-171-46-171-125-125-171-46zM512 810q-84 0-163-32t-139-92-92-139-32-163 32-163 92-139 139-92 163-32 163 32 139 92 92 139 32 163-32 163-92 139-139 92-163 32z" />
<glyph unicode="&#xf0780;" glyph-name="shield-half-full" d="M896 426q0-116-50-224t-138-184-196-104q-108 28-196 104t-138 184-50 224v256l384 172 384-172v-256zM512 0q78 22 147 86t110 152 41 180v210l-298 132v-760z" />
<glyph unicode="&#xf0791;" glyph-name="check-decagram" d="M982 384l-104 118 14 158-154 34-80 136-146-62-146 62-80-136-154-34 14-156-104-120 104-118-14-158 154-36 80-134 146 62 146-62 80 136 154 34-14 158zM426 170l-170 172 60 60 110-110 282 280 60-60z" />
<glyph unicode="&#xf07d9;" glyph-name="map-marker-outline" d="M512 618q44 0 75-31t31-75-31-75-75-31-75 31-31 75 31 75 75 31zM512 810q82 0 150-40t108-108 40-150q0-100-76-244-56-102-144-216-44-58-78-94v0l-46 54q-56 70-104 138-64 98-102 180-46 104-46 184t40 148 108 108 150 40zM512 726q-58 0-107-29t-78-78-29-107q0-34 8-62 14-54 56-128 52-94 150-224 98 130 150 224 42 74 56 128 8 28 8 62 0 58-29 107t-78 78-107 29z" />
<glyph unicode="&#xf07fe;" glyph-name="wall" d="M128 214h384v-214h-384v214zM86 470h256v-214h-256v214zM384 470h256v-214h-256v214zM682 470h256v-214h-256v214zM554 214h342v-214h-342v214zM128 726h342v-214h-342v214zM512 726h384v-214h-384v214z" />
<glyph unicode="&#xf0817;" glyph-name="comment-question" d="M170 810h684q34 0 59-25t25-59v-512q0-36-25-61t-59-25h-260l-158-158q-14-12-30-12h-22q-18 0-30 12t-12 30v128h-172q-34 0-59 25t-25 61v512q0 34 25 59t59 25zM520 662q-56 0-92-24t-32-70h84q0 18 12 27t28 9q22 0 33-11t11-29-10-32-26-24q-32-18-45-34t-13-48h84q0 18 6 29t22 21q30 14 49 37t19 51q0 44-35 71t-95 27zM470 384v-86h84v86h-84z" />
<glyph unicode="&#xf081f;" glyph-name="finance" d="M256 192l-128-126v360h128v-234zM470 270l-68 58-60-56v326h128v-328zM682 342l-128-128v554h128v-426zM802 350l-76 76h212v-212l-76 76-308-306-148 130-160-156h-118l276 270 150-128z" />
<glyph unicode="&#xf0821;" glyph-name="floor-plan" d="M426 682v-212h-42v212h-170v-340h170v42h42v-214h-42v128h-170v-212h298v84h42v-84h256v84h86v-170h-768v768h768v-512h-86v214h-256v-214h-42v256h298v170h-384z" />
<glyph unicode="&#xf0849;" glyph-name="account-group" d="M512 662q62 0 106-44t44-106-44-106-106-44-106 44-44 106 44 106 106 44zM214 554q34 0 64-18-4-44 9-88t39-80q-16-32-46-51t-66-19q-54 0-91 38t-37 91 37 90 91 37zM810 554q54 0 91-37t37-90-37-91-91-38q-36 0-66 19t-46 51q26 36 39 80t9 88q30 18 64 18zM234 118q0 42 38 79t101 59 139 22 139-22 101-59 38-79v-76h-556v76zM0 42v64q0 44 54 79t136 45q-40-46-40-112v-76h-150zM1024 42h-150v76q0 66-40 112 82-10 136-45t54-79v-64z" />
<glyph unicode="&#xf0855;" glyph-name="check-outline" d="M844 802l180-180-664-664-360 360 180 180 180-180zM844 682l-484-484-180 178-60-58 240-240 544 544z" />
<glyph unicode="&#xf08a8;" glyph-name="clipboard-check-outline" d="M810 768h-178q-14 38-47 62t-73 24-73-24-47-62h-178q-36 0-61-25t-25-61v-596q0-36 25-61t61-25h596q36 0 61 25t25 61v596q0 36-25 61t-61 25zM512 768q18 0 30-12t12-30-12-31-30-13-30 13-12 31 12 30 30 12zM298 598h428v84h84v-596h-596v596h84v-84zM320 320l64 64 86-86 192 192 64-64-256-256z" />
<glyph unicode="&#xf08b5;" glyph-name="palette-swatch" d="M108 58l58-24v384l-104-250q-14-32 0-65t46-45zM940 216l-212 510q-10 24-31 38t-45 14q-20 0-34-6l-316-130q-22-10-36-31t-16-45q0-16 6-34l214-510q8-26 30-40t46-14q18 0 34 6l314 130q32 14 46 47t0 65zM336 522q-18 0-30 13t-12 31 12 30 30 12 30-13 12-30-12-30-30-13zM250 54q0-36 25-61t61-25h62l-148 356v-270z" />
<glyph unicode="&#xf08bb;" glyph-name="cog-outline" d="M512 554q70 0 120-50t50-120-50-120-120-50-120 50-50 120 50 120 120 50zM512 470q-36 0-61-25t-25-61 25-61 61-25 61 25 25 61-25 61-61 25zM426-42q-8 0-14 5t-6 13l-16 112q-36 14-72 42l-106-42q-8-4-16-1t-10 9l-86 148q-4 8-3 15t7 13l90 70-2 42 2 42-90 70q-6 6-7 13t3 15l86 148q2 6 10 9t16-1l106-42q36 28 72 42l16 112q0 8 6 13t14 5h172q8 0 14-5t6-13l16-112q36-14 72-42l106 42q8 4 16 1t10-9l86-148q4-8 3-15t-7-13l-90-70 2-42-2-42 90-70q6-6 7-13t-3-15l-86-148q-2-6-10-9t-16 1l-106 42q-36-28-72-42l-16-112q0-8-6-13t-14-5h-172zM480 726l-16-112q-78-16-130-76l-102 44-32-56 90-66q-26-76 0-152l-90-68 32-54 104 44q52-60 128-76l16-112h64l16 112q76 16 128 76l104-44 32 54-90 66q26 78 0 154l90 66-32 56-102-44q-52 60-130 76l-16 112h-64z" />
<glyph unicode="&#xf08c9;" glyph-name="bullseye-arrow" d="M512 810q-84 0-163-32t-139-92-92-139-32-163 32-163 92-139 139-92 163-32 163 32 139 92 92 139 32 163q0 74-26 144l-68-68q10-38 10-76 0-92-46-171t-125-125-171-46-171 46-125 125-46 171 46 171 125 125 171 46q38 0 76-10l70 70q-72 24-146 24zM810 810l-170-170v-64l-108-108q-8 2-20 2-36 0-61-25t-25-61 25-61 61-25 61 25 25 61q0 12-2 20l108 108h64l170 170h-128v128zM512 640q-70 0-129-34t-93-93-34-129 34-129 93-93 129-34 129 34 93 93 34 129h-86q0-70-50-120t-120-50-120 50-50 120 50 120 120 50v86z" />
<glyph unicode="&#xf08d0;" glyph-name="heart" d="M512-14l-62 56q-138 124-192 180-86 88-126 156-46 78-46 156 0 64 31 118t85 85 118 31q56 0 106-24t86-64q36 40 86 64t106 24q64 0 118-31t85-85 31-118q0-78-46-156-40-68-126-156-54-56-192-180z" />
<glyph unicode="&#xf0935;" glyph-name="account-search-outline" d="M426 342q-24-42-34-84-54-4-110-20-48-16-82-35t-34-33v-46h226q10-42 34-82h-340v128q0 54 62 96 54 34 140 56 76 20 138 20zM426 726q72 0 122-50t50-122q0-56-36-104-54-20-96-62l-40-4q-70 0-120 50t-50 121 50 121 120 50zM426 644q-36 0-62-26t-26-63 26-63 63-26 63 26 26 63-26 63-64 26zM662 384q80 0 136-56t56-136q0-56-30-102l132-132-60-60-134 132q-46-30-100-30-80 0-136 56t-56 136 56 136 136 56zM662 298q-44 0-76-31t-32-75 32-75 76-31 75 31 31 75-31 75-75 31z" />
<glyph unicode="&#xf0937;" glyph-name="angle-acute" d="M854 86h-680l432 620 68-48-192-280q52-26 84-77t32-111q0-12-2-20h258v-84zM338 170h172q2 8 2 20 0 40-22 72t-58 46z" />
<glyph unicode="&#xf0965;" glyph-name="file-download" d="M598 810h-342q-36 0-61-25t-25-59v-684q0-34 25-59t61-25h512q36 0 61 25t25 59v512zM512 86l-170 170h106v128h128v-128h106zM554 512v234l236-234h-236z" />
<glyph unicode="&#xf0966;" glyph-name="file-download-outline" d="M598 810l256-256v-512q0-34-25-59t-61-25h-512q-36 0-61 25t-25 59v684q0 34 25 59t61 25h342zM768 42v470h-214v214h-298v-684h512zM512 86l-170 170h106v128h128v-128h106z" />
<glyph unicode="&#xf0982;" glyph-name="map-outline" d="M874 768l-6-2-228-88-256 90-240-82q-16-4-16-20v-644q0-10 6-16t16-6l6 2 228 88 256-90 240 82q16 4 16 20v644q0 10-6 16t-16 6zM426 662l172-60v-496l-172 60v496zM214 620l128 44v-500l-128-50v506zM810 148l-128-44v500l128 48v-504z" />
<glyph unicode="&#xf098f;" glyph-name="order-bool-ascending-variant" d="M170 342q-34 0-59-25t-25-61v-170q0-36 25-61t59-25h172q34 0 59 25t25 61v170q0 36-25 61t-59 25h-172zM350 278l46-46-172-168-108 108 46 46 64-64zM170 768q-34 0-59-25t-25-61v-170q0-36 25-61t59-25h172q34 0 59 25t25 61v170q0 36-25 61t-59 25h-172zM170 682h172v-170h-172v170zM512 682h426v-84h-426v84zM512 86v84h426v-84h-426zM512 426h426v-84h-426v84z" />
<glyph unicode="&#xf0990;" glyph-name="order-bool-descending-variant" d="M170 768q-34 0-59-25t-25-61v-170q0-36 25-61t59-25h172q34 0 59 25t25 61v170q0 36-25 61t-59 25h-172zM350 704l46-44-172-170-108 110 46 44 64-64zM170 342q-34 0-59-25t-25-61v-170q0-36 25-61t59-25h172q34 0 59 25t25 61v170q0 36-25 61t-59 25h-172zM170 256h172v-170h-172v170zM512 682h426v-84h-426v84zM512 86v84h426v-84h-426zM512 426h426v-84h-426v84z" />
<glyph unicode="&#xf0991;" glyph-name="office-building" d="M214 768v-768h256v150h84v-150h256v768h-596zM298 682h86v-84h-86v84zM470 682h84v-84h-84v84zM640 682h86v-84h-86v84zM298 512h86v-86h-86v86zM470 512h84v-86h-84v86zM640 512h86v-86h-86v86zM298 342h86v-86h-86v86zM470 342h84v-86h-84v86zM640 342h86v-86h-86v86zM298 170h86v-84h-86v84zM640 170h86v-84h-86v84z" />
<glyph unicode="&#xf099d;" glyph-name="shield-lock" d="M512 854l-384-172v-256q0-116 50-224t138-184 196-104q108 28 196 104t138 184 50 224v256zM512 598q46 0 83-32t37-76v-64q20 0 35-16t15-38v-150q0-20-16-36t-38-16h-236q-20 0-35 17t-15 39v150q0 18 16 34t34 16v64q0 44 37 76t83 32zM512 546q-26 0-45-15t-19-41v-64h128v64q0 26-19 41t-45 15z" />
<glyph unicode="&#xf09c0;" glyph-name="arrow-left-bold-outline" d="M554-42l-426 426 426 426v-256h342v-340h-342v-256zM256 384l214-214v128h340v172h-340v128z" />
<glyph unicode="&#xf09c2;" glyph-name="arrow-right-bold-outline" d="M470 214h-342v340h342v256l426-426-426-426v256zM554 598v-128h-340v-172h340v-128l214 214z" />
<glyph unicode="&#xf09de;" glyph-name="circle-medium" d="M512 554q-70 0-120-50t-50-120 50-120 120-50 120 50 50 120-50 120-120 50z" />
<glyph unicode="&#xf09df;" glyph-name="circle-small" d="M512 470q-36 0-61-25t-25-61 25-61 61-25 61 25 25 61-25 61-61 25z" />
<glyph unicode="&#xf09ed;" glyph-name="text-box-outline" d="M214 768q-36 0-61-25t-25-61v-596q0-36 25-61t61-25h596q36 0 61 25t25 61v596q0 36-25 61t-61 25h-596zM214 682h596v-596h-596v596zM298 598v-86h428v86h-428zM298 426v-84h428v84h-428zM298 256v-86h300v86h-300z" />
<glyph unicode="&#xf09ee;" glyph-name="file-document-outline" d="M256 810q-36 0-61-25t-25-59v-684q0-34 25-59t61-25h512q36 0 61 25t25 59v512l-256 256h-342zM256 726h298v-214h214v-470h-512v684zM342 384v-86h340v86h-340zM342 214v-86h212v86h-212z" />
<glyph unicode="&#xf0a02;" glyph-name="menu-left-outline" d="M640 128h-64l-256 256 256 256h64v-512zM440 384l114-114v228z" />
<glyph unicode="&#xf0a03;" glyph-name="menu-right-outline" d="M384 640h64l256-256-256-256h-64v512zM584 384l-114 114v-228z" />
<glyph unicode="&#xf0a13;" glyph-name="square-medium" d="M682 554h-340v-340h340v340z" />
<glyph unicode="&#xf0a14;" glyph-name="square-medium-outline" d="M598 470v-172h-172v172h172zM682 554h-340v-340h340v340z" />
<glyph unicode="&#xf0a15;" glyph-name="square-small" d="M426 298v172h172v-172h-172z" />
<glyph unicode="&#xf0a8b;" glyph-name="account-supervisor" d="M704 384q44 0 75 31t31 75-31 76-75 32-75-32-31-76 31-75 75-31zM384 426q54 0 91 38t37 91-37 90-91 37-91-37-37-90 37-91 91-38zM704 298q-44 0-96-12-58-16-96-40-42-28-42-64v-96h468v96q0 36-42 64-38 24-96 40-52 12-96 12zM384 342q-56 0-122-18-74-18-122-50-54-36-54-82v-106h298v96q0 36 18 68 26 48 84 80-58 12-102 12z" />
<glyph unicode="&#xf0a8c;" glyph-name="account-supervisor-circle" d="M512 810q-116 0-214-57t-155-155-57-214q0-84 32-163t92-139 139-92 163-32 163 32 139 92 92 139 32 163-32 163-92 139-139 92-163 32zM666 540q34 0 58-24t24-58-24-58-58-24-58 24-25 58 24 58 59 24zM410 608q42 0 71-30t29-71-29-71-71-30-72 30-30 71 30 71 72 30zM410 218v-160q-78 24-135 80t-85 132q30 32 104 54 62 18 116 18 36 0 80-10-46-24-66-60-14-26-14-54zM512 42q-24 0-34 2v174q0 40 70 68 60 22 118 22 38 0 84-12 52-14 80-36-38-96-125-157t-193-61z" />
<glyph unicode="&#xf0b22;" glyph-name="bulldozer" d="M170 726q-18 0-30-13t-12-31v-212q-14 0-26-9t-16-25v-136h12q12 20 31 31t41 11h384q24 0 43-11t31-31h56l-2 126q0 18-12 31t-30 13h-86v84q0 18-12 31t-30 13-30-13-12-31v-84h-86v212q0 18-12 31t-30 13h-172zM214 640h84v-214h-84v214zM726 426v-340h212v42l-128 42-42 256h-42zM170 256q-34 0-59-25t-25-60 25-60 59-25h384q36 0 61 25t25 60-25 60-61 25h-384z" />
<glyph unicode="&#xf0b28;" glyph-name="chevron-left-circle" d="M938 384q0-84-32-163t-92-139-139-92-163-32-163 32-139 92-92 139-32 163 32 163 92 139 139 92 163 32 163-32 139-92 92-139 32-163zM658 188l-198 196 198 196-60 60-256-256 256-256z" />
<glyph unicode="&#xf0b29;" glyph-name="chevron-left-circle-outline" d="M938 384q0-84-32-163t-92-139-139-92-163-32-163 32-139 92-92 139-32 163 32 163 92 139 139 92 163 32 163-32 139-92 92-139 32-163zM854 384q0 92-46 171t-125 125-171 46-171-46-125-125-46-171 46-171 125-125 171-46 171 46 125 125 46 171zM658 188l-198 196 198 196-60 60-256-256 256-256z" />
<glyph unicode="&#xf0b2a;" glyph-name="chevron-right-circle" d="M938 384q0-84-32-163t-92-139-139-92-163-32-163 32-139 92-92 139-32 163 32 163 92 139 139 92 163 32 163-32 139-92 92-139 32-163zM426 128l256 256-256 256-60-60 198-196-198-196z" />
<glyph unicode="&#xf0b2b;" glyph-name="chevron-right-circle-outline" d="M938 384q0-84-32-163t-92-139-139-92-163-32-163 32-139 92-92 139-32 163 32 163 92 139 139 92 163 32 163-32 139-92 92-139 32-163zM854 384q0 92-46 171t-125 125-171 46-171-46-125-125-46-171 46-171 125-125 171-46 171 46 125 125 46 171zM366 188l198 196-198 196 60 60 256-256-256-256z" />
<glyph unicode="&#xf0b55;" glyph-name="account-circle-outline" d="M512 810q-84 0-163-32t-139-92-92-139-32-163 32-163 92-139 139-92 163-32 163 32 139 92 92 139 32 163-32 163-92 139-139 92-163 32zM302 116q14 28 81 52t129 24 129-24 81-52q-92-74-210-74t-210 74zM784 178q-42 50-136 78-74 22-136 22t-136-22q-94-28-136-78-70 92-70 206 0 92 46 171t125 125 171 46 171-46 125-125 46-171q0-114-70-206zM512 640q-62 0-106-44t-44-106 44-105 106-43 106 43 44 105-44 106-106 44zM512 426q-26 0-45 19t-19 46 19 45 45 18 45-18 19-45-19-46-45-19z" />
<glyph unicode="&#xf0b58;" glyph-name="account-group-outline" d="M512 682q-62 0-106-43t-44-105 44-106 106-44 106 44 44 106-44 105-106 43zM512 598q26 0 45-19t19-46-19-45-45-18-45 18-19 45 19 46 45 19zM234 554q-44 0-75-31t-31-75q0-30 15-54t40-38 52-14 51 13 40 37q-48 62-48 142v12q-20 8-44 8zM790 554q-24 0-44-8v-12q0-80-48-142 8-10 19-21t21-17q24-12 51-12t52 14 40 38 15 54q0 44-31 75t-75 31zM512 298q-56 0-122-16-74-18-122-50-54-36-54-82v-64h596v64q0 46-54 82-48 32-122 50-66 16-122 16zM200 276q-74-10-130-40-70-36-70-86v-64h128v82q0 60 72 108zM824 276q72-48 72-108v-82h128v64q0 50-70 86-56 30-130 40zM512 214q46 0 98-14 48-12 82-30h-360q34 18 82 30 52 14 98 14z" />
<glyph unicode="&#xf0b63;" glyph-name="book-open-outline" d="M896 726h-768q-36 0-61-25t-25-61v-554q0-36 25-61t61-25h768q36 0 61 25t25 61v554q0 36-25 61t-61 25zM128 86v554h342v-554h-342zM896 86h-342v554h342v-554zM598 490h256v-64h-256v64zM598 384h256v-64h-256v64zM598 278h256v-64h-256v64z" />
<glyph unicode="&#xf0b79;" glyph-name="chat" d="M512 768q116 0 214-46t155-124 57-171-57-171-155-124-214-46q-78 0-150 20-44-36-96-60-42-20-90-32-32-8-66-12l-24-2q64 64 94 124 20 38 22 68-54 46-85 107t-31 127q0 94 57 172t155 124 214 46z" />
<glyph unicode="&#xf0ba7;" glyph-name="home-variant-outline" d="M384 342h256v-256h128v384l-256 192-256-192v-384h128v256zM170 0v512l342 256 342-256v-512h-684z" />
<glyph unicode="&#xf0bc2;" glyph-name="script-text" d="M760 42q-14-38-46-61t-74-23h-426q-56 0-92 36t-36 92v42h520q12-38 45-62t75-24h34zM810 810q56 0 92-36t36-92v-42h-84v42q0 20-12 32t-31 12-31-12-12-32v-554h-42q-20 0-32 12t-12 30v44h-468v468q0 56 36 92t92 36h468zM342 640v-86h298v86h-298zM342 470v-86h256v86h-256z" />
<glyph unicode="&#xf0bc3;" glyph-name="script-text-outline" d="M640 42q18 0 30 13t12 31v640h-340q-18 0-31-13t-13-31v-468h-84v468q0 54 37 91t91 37h468q54 0 91-37t37-91v-42h-84v42q0 18-13 31t-31 13-30-13-12-31v-596q0-54-37-91t-91-37h-426q-54 0-91 37t-37 91v42h468q0-36 25-61t61-25zM384 640h214v-86h-214v86zM384 470h214v-86h-214v86zM384 298h214v-84h-214v84z" />
<glyph unicode="&#xf0bd7;" glyph-name="tooltip-text-outline" d="M170 810h684q34 0 59-25t25-59v-512q0-36-25-61t-59-25h-172l-170-170-170 170h-172q-34 0-59 25t-25 61v512q0 34 25 59t59 25zM170 726v-512h206l136-136 136 136h206v512h-684zM256 598h512v-86h-512v86zM256 426h426v-84h-426v84z" />
<glyph unicode="&#xf0be0;" glyph-name="wrench-outline" d="M964 86l-386 388q30 76 14 157t-76 141q-74 72-176 80t-184-52l164-164-60-60-164 162q-60-82-53-184t81-174q58-60 138-76t156 12l388-388q12-14 30-14t30 14l98 98q14 12 14 29t-14 31zM836 18l-402 404q-40-30-85-36t-89 7-75 45-45 70-12 78l132-132 180 182-132 132q86 4 148-56 34-34 47-79t5-90-36-85l402-402z" />
<glyph unicode="&#xf0c52;" glyph-name="checkbox-outline" d="M810 768h-596q-36 0-61-25t-25-61v-596q0-36 25-61t61-25h596q36 0 61 25t25 61v596q0 36-25 61t-61 25zM810 682v-596h-596v596h596zM426 170l-170 172 60 60 110-110 282 280 60-60z" />
<glyph unicode="&#xf0c67;" glyph-name="dump-truck" d="M854 554h-214v-256h-554v-128h42q0-52 37-90t91-38 91 38 37 90h256q0-52 37-90t91-38 91 38 37 90h86v214zM256 106q-26 0-45 19t-19 46 19 45 45 18 45-18 19-45-19-46-45-19zM768 106q-26 0-45 19t-19 46 19 45 45 18 45-18 19-45-19-46-45-19zM726 384v106h106l84-106h-190zM768 598h-170v-256h-470l-62 212h-24v86h512l44 42h170v-84z" />
<glyph unicode="&#xf0ca0;" glyph-name="numeric-1-circle" d="M426 598v-86h86v-342h86v428h-172zM512 810q84 0 163-32t139-92 92-139 32-163-32-163-92-139-139-92-163-32-163 32-139 92-92 139-32 163 32 163 92 139 139 92 163 32z" />
<glyph unicode="&#xf0ca1;" glyph-name="numeric-1-circle-outline" d="M426 598h172v-428h-86v342h-86v86zM512 810q84 0 163-32t139-92 92-139 32-163-32-163-92-139-139-92-163-32-163 32-139 92-92 139-32 163 32 163 92 139 139 92 163 32zM512 726q-92 0-171-46t-125-125-46-171 46-171 125-125 171-46 171 46 125 125 46 171-46 171-125 125-171 46z" />
<glyph unicode="&#xf0ca2;" glyph-name="numeric-2-circle" d="M384 598v-86h170v-86h-84q-36 0-61-25t-25-59v-172h256v86h-170v86h84q36 0 61 25t25 59v86q0 36-25 61t-61 25h-170zM512 810q84 0 163-32t139-92 92-139 32-163-32-163-92-139-139-92-163-32-163 32-139 92-92 139-32 163 32 163 92 139 139 92 163 32z" />
<glyph unicode="&#xf0ca3;" glyph-name="numeric-2-circle-outline" d="M384 598h170q36 0 61-25t25-61v-86q0-34-25-59t-61-25h-84v-86h170v-86h-256v172q0 34 25 59t61 25h84v86h-170v86zM512 810q84 0 163-32t139-92 92-139 32-163-32-163-92-139-139-92-163-32-163 32-139 92-92 139-32 163 32 163 92 139 139 92 163 32zM512 726q-92 0-171-46t-125-125-46-171 46-171 125-125 171-46 171 46 125 125 46 171-46 171-125 125-171 46z" />
<glyph unicode="&#xf0ca4;" glyph-name="numeric-3-circle" d="M640 256v64q0 26-19 45t-45 19q26 0 45 19t19 45v64q0 36-25 61t-61 25h-170v-86h170v-86h-84v-84h84v-86h-170v-86h170q36 0 61 25t25 61zM512 810q84 0 163-32t139-92 92-139 32-163-32-163-92-139-139-92-163-32-163 32-139 92-92 139-32 163 32 163 92 139 139 92 163 32z" />
<glyph unicode="&#xf0ca5;" glyph-name="numeric-3-circle-outline" d="M640 256q0-36-25-61t-61-25h-170v86h170v86h-84v84h84v86h-170v86h170q36 0 61-25t25-61v-64q0-26-19-45t-45-19q26 0 45-19t19-45v-64zM512 810q84 0 163-32t139-92 92-139 32-163-32-163-92-139-139-92-163-32-163 32-139 92-92 139-32 163 32 163 92 139 139 92 163 32zM512 726q-92 0-171-46t-125-125-46-171 46-171 125-125 171-46 171 46 125 125 46 171-46 171-125 125-171 46z" />
<glyph unicode="&#xf0ca6;" glyph-name="numeric-4-circle" d="M384 598v-256h170v-172h86v428h-86v-172h-84v172h-86zM512 810q84 0 163-32t139-92 92-139 32-163-32-163-92-139-139-92-163-32-163 32-139 92-92 139-32 163 32 163 92 139 139 92 163 32z" />
<glyph unicode="&#xf0ca7;" glyph-name="numeric-4-circle-outline" d="M384 598h86v-172h84v172h86v-428h-86v172h-170v256zM512 810q84 0 163-32t139-92 92-139 32-163-32-163-92-139-139-92-163-32-163 32-139 92-92 139-32 163 32 163 92 139 139 92 163 32zM512 726q-92 0-171-46t-125-125-46-171 46-171 125-125 171-46 171 46 125 125 46 171-46 171-125 125-171 46z" />
<glyph unicode="&#xf0ca8;" glyph-name="numeric-5-circle" d="M384 598v-256h170v-86h-170v-86h170q36 0 61 25t25 61v86q0 34-25 59t-61 25h-84v86h170v86h-256zM512 810q84 0 163-32t139-92 92-139 32-163-32-163-92-139-139-92-163-32-163 32-139 92-92 139-32 163 32 163 92 139 139 92 163 32z" />
<glyph unicode="&#xf0ca9;" glyph-name="numeric-5-circle-outline" d="M384 598h256v-86h-170v-86h84q36 0 61-25t25-59v-86q0-36-25-61t-61-25h-170v86h170v86h-170v256zM512 810q84 0 163-32t139-92 92-139 32-163-32-163-92-139-139-92-163-32-163 32-139 92-92 139-32 163 32 163 92 139 139 92 163 32zM512 726q-92 0-171-46t-125-125-46-171 46-171 125-125 171-46 171 46 125 125 46 171-46 171-125 125-171 46z" />
<glyph unicode="&#xf0caa;" glyph-name="numeric-6-circle" d="M470 598q-36 0-61-25t-25-61v-256q0-36 25-61t61-25h84q36 0 61 25t25 61v86q0 34-25 59t-61 25h-84v86h170v86h-170zM470 342h84v-86h-84v86zM512 810q84 0 163-32t139-92 92-139 32-163-32-163-92-139-139-92-163-32-163 32-139 92-92 139-32 163 32 163 92 139 139 92 163 32z" />
<glyph unicode="&#xf0cab;" glyph-name="numeric-6-circle-outline" d="M470 598h170v-86h-170v-86h84q36 0 61-25t25-59v-86q0-36-25-61t-61-25h-84q-36 0-61 25t-25 61v256q0 36 25 61t61 25zM470 342v-86h84v86h-84zM512 810q84 0 163-32t139-92 92-139 32-163-32-163-92-139-139-92-163-32-163 32-139 92-92 139-32 163 32 163 92 139 139 92 163 32zM512 726q-92 0-171-46t-125-125-46-171 46-171 125-125 171-46 171 46 125 125 46 171-46 171-125 125-171 46z" />
<glyph unicode="&#xf0cac;" glyph-name="numeric-7-circle" d="M470 170l170 342v86h-256v-86h170l-170-342h86zM512 810q84 0 163-32t139-92 92-139 32-163-32-163-92-139-139-92-163-32-163 32-139 92-92 139-32 163 32 163 92 139 139 92 163 32z" />
<glyph unicode="&#xf0cad;" glyph-name="numeric-7-circle-outline" d="M470 170h-86l170 342h-170v86h256v-86zM512 810q84 0 163-32t139-92 92-139 32-163-32-163-92-139-139-92-163-32-163 32-139 92-92 139-32 163 32 163 92 139 139 92 163 32zM512 726q-92 0-171-46t-125-125-46-171 46-171 125-125 171-46 171 46 125 125 46 171-46 171-125 125-171 46z" />
<glyph unicode="&#xf0cae;" glyph-name="numeric-8-circle" d="M470 342h84v-86h-84v86zM470 512h84v-86h-84v86zM470 170h84q36 0 61 25t25 61v64q0 26-19 45t-45 19q26 0 45 19t19 45v64q0 36-25 61t-61 25h-84q-36 0-61-25t-25-61v-64q0-26 19-45t45-19q-26 0-45-19t-19-45v-64q0-36 25-61t61-25zM512 810q84 0 163-32t139-92 92-139 32-163-32-163-92-139-139-92-163-32-163 32-139 92-92 139-32 163 32 163 92 139 139 92 163 32z" />
<glyph unicode="&#xf0caf;" glyph-name="numeric-8-circle-outline" d="M470 342v-86h84v86h-84zM470 512v-86h84v86h-84zM470 170q-36 0-61 25t-25 61v64q0 26 19 45t45 19q-26 0-45 19t-19 45v64q0 36 25 61t61 25h84q36 0 61-25t25-61v-64q0-26-19-45t-45-19q26 0 45-19t19-45v-64q0-36-25-61t-61-25h-84zM512 810q84 0 163-32t139-92 92-139 32-163-32-163-92-139-139-92-163-32-163 32-139 92-92 139-32 163 32 163 92 139 139 92 163 32zM512 726q-92 0-171-46t-125-125-46-171 46-171 125-125 171-46 171 46 125 125 46 171-46 171-125 125-171 46z" />
<glyph unicode="&#xf0cb0;" glyph-name="numeric-9-circle" d="M512 810q84 0 163-32t139-92 92-139 32-163-32-163-92-139-139-92-163-32-163 32-139 92-92 139-32 163 32 163 92 139 139 92 163 32zM554 170q36 0 61 25t25 61v256q0 36-25 61t-61 25h-84q-36 0-61-25t-25-61v-86q0-34 25-59t61-25h84v-86h-170v-86h170zM554 426h-84v86h84v-86z" />
<glyph unicode="&#xf0cb1;" glyph-name="numeric-9-circle-outline" d="M554 170h-170v86h170v86h-84q-36 0-61 25t-25 59v86q0 36 25 61t61 25h84q36 0 61-25t25-61v-256q0-36-25-61t-61-25zM554 426v86h-84v-86h84zM512 810q84 0 163-32t139-92 92-139 32-163-32-163-92-139-139-92-163-32-163 32-139 92-92 139-32 163 32 163 92 139 139 92 163 32zM512 726q-92 0-171-46t-125-125-46-171 46-171 125-125 171-46 171 46 125 125 46 171-46 171-125 125-171 46z" />
<glyph unicode="&#xf0cb6;" glyph-name="pencil-outline" d="M600 512l40-40-388-386h-38v38zM754 768q-18 0-30-12l-78-78 160-160 78 78q12 12 12 30t-12 30l-100 100q-12 12-30 12zM600 632l-472-472v-160h160l472 472z" />
<glyph unicode="&#xf0cc2;" glyph-name="ruler-square" d="M128 682v-682h256v64h-86v64h86v64h-170v64h170v64h-86v64h86v64h-170v64h170v170h64v-170h64v86h64v-86h64v170h64v-170h64v86h64v-86h64v256h-682q-36 0-61-25t-25-61zM256 598q-18 0-30 12t-12 30 12 30 30 12 30-12 12-30-12-30-30-12z" />
<glyph unicode="&#xf0cc8;" glyph-name="shield-check-outline" d="M896 426q0-116-50-224t-138-184-196-104q-108 28-196 104t-138 184-50 224v256l384 172 384-172v-256zM512 0q78 22 147 86t110 152 41 180v210l-298 132-298-132v-210q0-92 41-180t110-152 147-86zM426 170l-170 172 60 60 110-110 282 280 60-60z" />
<glyph unicode="&#xf0ccb;" glyph-name="shield-home-outline" d="M896 426q0-116-50-224t-138-184-196-104q-108 28-196 104t-138 184-50 224v256l384 172 384-172v-256zM512 0q78 22 147 86t110 152 41 180v210l-298 132-298-132v-210q0-92 41-180t110-152 147-86zM470 298h84v-128h128v214h86l-256 214-256-214h86v-214h128v128z" />
<glyph unicode="&#xf0ccc;" glyph-name="shield-lock-outline" d="M896 426q0-116-50-224t-138-184-196-104q-108 28-196 104t-138 184-50 224v256l384 172 384-172v-256zM512 0q78 22 147 86t110 152 41 180v210l-298 132-298-132v-210q0-92 41-180t110-152 147-86zM632 426v64q0 44-37 76t-83 32-83-32-37-76v-64q-18 0-34-16t-16-34v-150q0-22 15-39t35-17h236q22 0 38 16t16 36v150q0 22-15 38t-35 16zM576 426h-128v64q0 26 19 41t45 15 45-15 19-41v-64z" />
<glyph unicode="&#xf0ce3;" glyph-name="account-tie" d="M512 768q70 0 120-50t50-121-50-121-120-50-120 50-50 121 50 121 120 50zM682 318q0-50-16-106-24-84-76-162l-36 206 40 80q-44 6-82 6t-82-6l40-80-36-206q-52 78-76 162-16 56-16 106-78-22-125-61t-47-87v-170h684v170q0 48-46 87t-126 61z" />
<glyph unicode="&#xf0ce4;" glyph-name="alert-box-outline" d="M810 86h-596v596h596v-596zM810 768h-596q-36 0-61-25t-25-61v-596q0-36 25-61t61-25h596q36 0 61 25t25 61v596q0 36-25 61t-61 25zM470 256h84v-86h-84v86zM470 598h84v-256h-84v256z" />
<glyph unicode="&#xf0ce5;" glyph-name="alert-decagram-outline" d="M982 384l-104-118 14-158-154-34-80-136-146 62-146-62-80 134-154 36 14 158-104 118 104 120-14 156 154 34 80 136 146-62 146 62 80-136 154-34-14-158zM868 384l-78 90 10 120-118 24-60 104-110-48-110 48-60-104-118-24 10-120-78-90 78-90-10-120 118-24 60-104 110 48 110-48 60 104 118 26-10 118zM470 256h84v-86h-84v86zM470 598h84v-256h-84v256z" />
<glyph unicode="&#xf0d15;" glyph-name="home-city" d="M0 0v470l320 212 320-212v-470h-214v298h-212v-298h-214zM1024 810v-810h-298v514l-44 30v96h-84v-40l-172 114v96h598zM896 298h-86v-84h86v84zM896 470h-86v-86h86v86zM896 640h-86v-86h86v86z" />
<glyph unicode="&#xf0d16;" glyph-name="home-city-outline" d="M426 810v-96l86-56v68h426v-640h-212v-86h298v810h-598zM320 682l-320-212v-470h640v470zM598 640v-40l68-46h16v86h-84zM768 640v-86h86v86h-86zM320 576l234-150v-340h-128v256h-212v-256h-128v340zM768 470v-86h86v86h-86zM768 298v-84h86v84h-86z" />
<glyph unicode="&#xf0d5d;" glyph-name="camera-outline" d="M854 726h-136l-78 84h-256l-78-84h-136q-34 0-59-25t-25-61v-512q0-36 25-61t59-25h684q34 0 59 25t25 61v512q0 36-25 61t-59 25zM854 128h-684v512h174l78 86h180l78-86h174v-512zM512 598q-58 0-107-29t-78-78-29-107 29-107 78-78 107-29 107 29 78 78 29 107-29 107-78 78-107 29zM512 256q-54 0-91 37t-37 91 37 91 91 37 91-37 37-91-37-91-91-37z" />
<glyph unicode="&#xf0dd4;" glyph-name="home-group" d="M726 214h-86v-256h-128v212h-170v-212h-128v256h-86l298 256zM256 810l170-170h-42v-128h-86v128h-84v-128h-86v128h-42zM768 768l214-214h-44v-170h-128v128h-84v-128h-72l-56 48v122h-44z" />
<glyph unicode="&#xf0dd6;" glyph-name="key-outline" d="M896 128h-256v128h-72q-36-76-110-123t-158-47-152 40-108 108-40 150 40 150 108 108 152 40 158-47 110-123h456v-256h-128v-128zM726 214h84v128h128v84h-430l-8 30q-24 64-79 103t-123 39q-58 0-107-29t-77-78-28-107 28-107 77-78 107-29q68 0 123 39t79 103l8 30h218v-128zM298 256q-54 0-91 37t-37 91 37 91 92 37 91-37 36-91-36-91-92-37zM298 426q-18 0-30-11t-12-31 12-31 31-11 31 11 12 31-12 31-32 11z" />
<glyph unicode="&#xf0e0c;" glyph-name="palette-outline" d="M512-42q-84 0-163 32t-139 92-92 139-32 163 32 163 92 139 139 92 163 32q116 0 214-51t155-139 57-194q0-68-34-127t-93-94-129-35h-76q-10 0-16-6t-6-14q0-2 2-7t2-7q26-32 26-72 4-44-26-75t-76-31zM512 726q-92 0-171-46t-125-125-46-171 46-171 125-125 171-46q10 0 16 6t6 16q0 4-4 12v6q-26 32-26 68 0 44 31 75t75 31h72q72 0 122 50t50 120q0 82-46 151t-125 109-171 40zM278 470q24 0 44-20t20-45-20-44-45-19-44 19-19 44 19 45 45 20zM406 640q24 0 44-19t20-45-20-45-45-19-44 19-19 45 19 45 45 19zM618 640q26 0 45-19t19-45-19-45-44-19-45 19-20 45 20 45 44 19zM746 470q26 0 45-20t19-45-19-44-44-19-45 19-20 44 20 45 44 20z" />
<glyph unicode="&#xf0e1e;" glyph-name="check-bold" d="M384 24l-264 266 120 120 144-144 422 422 120-120z" />
<glyph unicode="&#xf0ec2;" glyph-name="record-circle" d="M512 810q-84 0-163-32t-139-92-92-139-32-163 32-163 92-139 139-92 163-32 163 32 139 92 92 139 32 163-32 163-92 139-139 92-163 32zM512 512q54 0 91-37t37-91-37-91-91-37-91 37-37 91 37 91 91 37z" />
<glyph unicode="&#xf0ecc;" glyph-name="shield-alert" d="M512 854l-384-172v-256q0-116 50-224t138-184 196-104q108 28 196 104t138 184 50 224v256zM470 598h84v-256h-84v256zM470 256h84v-86h-84v86z" />
<glyph unicode="&#xf0ecd;" glyph-name="shield-alert-outline" d="M896 426q0-116-50-224t-138-184-196-104q-108 28-196 104t-138 184-50 224v256l384 172 384-172v-256zM512 0q78 22 147 86t110 152 41 180v210l-298 132-298-132v-210q0-92 41-180t110-152 147-86zM470 598h84v-256h-84v256zM470 256h84v-86h-84v86z" />
<glyph unicode="&#xf0ede;" glyph-name="chat-outline" d="M512 768q-116 0-214-46t-155-124-57-172q0-68 31-130t85-104q0-28-20-68-32-58-96-124 74 4 145 31t131 75q74-20 150-20 116 0 214 46t155 124 57 171-57 171-155 124-214 46zM512 170q-92 0-171 35t-125 94-46 128 46 128 125 93 171 34 171-34 125-93 46-128-46-128-125-94-171-35z" />
<glyph unicode="&#xf0f1b;" glyph-name="play-outline" d="M362 528l226-144-226-144v288zM278 682v-596l468 298z" />
<glyph unicode="&#xf0fb1;" glyph-name="email-newsletter" d="M512 868l-160-100h-138v-86l-88-54q-18-12-29-31t-11-43v-426q0-36 25-61t59-25h684q34 0 59 25t25 61v426q0 24-11 43t-29 31l-88 54v86h-138zM298 682h428v-208l-214-132-214 132v208zM342 640v-64h340v64h-340zM214 582v-54l-44 26zM810 582l44-28-44-26v54zM342 534v-64h340v64h-340z" />
<glyph unicode="&#xf0fec;" glyph-name="numeric-10-circle" d="M598 512h84v-256h-84v256zM938 384q0-116-57-214t-155-155-214-57-214 57-155 155-57 214 57 214 155 155 214 57 214-57 155-155 57-214zM426 598h-170v-86h86v-342h84v428zM768 512q0 36-25 61t-61 25h-84q-36 0-61-25t-25-61v-256q0-36 25-61t61-25h84q36 0 61 25t25 61v256z" />
<glyph unicode="&#xf0fed;" glyph-name="numeric-10-circle-outline" d="M512 810q116 0 214-57t155-155 57-214-57-214-155-155-214-57-214 57-155 155-57 214 57 214 155 155 214 57zM512 726q-92 0-171-46t-125-125-46-171 46-171 125-125 171-46 171 46 125 125 46 171-46 171-125 125-171 46zM426 598h-170v-86h86v-342h84v428zM682 598h-84q-36 0-61-25t-25-61v-256q0-36 25-61t61-25h84q36 0 61 25t25 61v256q0 36-25 61t-61 25zM682 256h-84v256h84v-256z" />
<glyph unicode="&#xf0ff6;" glyph-name="hospital" d="M768 298h-170v-170h-172v170h-170v172h170v170h172v-170h170v-172z" />
<glyph unicode="&#xf1001;" glyph-name="newspaper-variant" d="M854 768h-684q-34 0-59-25t-25-61v-596q0-36 25-61t59-25h684q34 0 59 25t25 61v596q0 36-25 61t-59 25zM214 598h212v-256h-212v256zM810 170h-596v86h596v-86zM810 342h-298v84h298v-84zM810 512h-298v86h298v-86z" />
<glyph unicode="&#xf1004;" glyph-name="newspaper-variant-outline" d="M854 682v-596h-684v596h684zM854 768h-684q-34 0-59-25t-25-61v-596q0-36 25-61t59-25h684q34 0 59 25t25 61v596q0 36-25 61t-59 25zM768 256h-512v-86h512v86zM426 598h-170v-256h170v256zM512 512h256v86h-256v-86zM768 426h-256v-84h256v84z" />
<glyph unicode="&#xf1006;" glyph-name="pig-variant" d="M846 576l-96 96q4 28 12 50 6 12 6 24 0 28-19 46t-45 18q-52 0-96-23t-74-61h-214q-64 0-118-32t-85-86-31-118q0-80 52-294 28-106 54-196h234v86h86v-86h234l72 238 120 40v298h-92zM682 426q-16 0-29 13t-13 30 13 30 30 13 30-13 13-30-13-30-31-13z" />
<glyph unicode="&#xf1007;" glyph-name="piggy-bank" d="M846 576l-96 96q4 28 12 50 6 12 6 24 0 28-19 46t-45 18q-52 0-96-23t-74-61h-214q-64 0-118-32t-85-86-31-118q0-80 52-294 28-106 54-196h234v86h86v-86h234l72 238 120 40v298h-92zM554 512h-212v86h212v-86zM682 426q-16 0-29 13t-13 30 13 30 30 13 30-13 13-30-13-30-31-13z" />
<glyph unicode="&#xf1008;" glyph-name="post" d="M128 768v-768h768v768h-768zM768 128h-512v42h512v-42zM768 214h-512v42h512v-42zM768 384h-512v256h512v-256z" />
<glyph unicode="&#xf1009;" glyph-name="post-outline" d="M810 682v-596h-596v596h596zM896 768h-768v-768h768v768zM726 170h-428v44h428v-44zM726 256h-428v42h428v-42zM726 384h-428v214h428v-214z" />
<glyph unicode="&#xf1025;" glyph-name="excavator" d="M790 106q16 0 29-12t13-30-13-30-29-12h-512q-18 0-31 12t-13 30 13 30 31 12h512zM790 170h-512q-44 0-76-31t-32-75 32-75 76-31h512q44 0 75 31t31 75-31 75-75 31zM896 426h-128v172h-214l-128-172v-212h512zM492 426l84 108h106v-108h-190zM416 750l-212 60-118-418q-12-42 9-79t63-49l50-14 140 122-166 46 80 288 120-34q22-12 50-34 36-28 58-56l44 58h18q-32 42-84 78-26 18-50 32h-2z" />
<glyph unicode="&#xf1064;" glyph-name="tools" d="M926 30l-60-60q-12-12-30-12t-30 12l-508 506q-20-6-42-6-42 0-78 19t-60 52-30 74 6 81l110-108 104 104-108 110q40 12 81 6t74-30 52-60 19-78q0-22-6-42l506-508q12-12 12-30t-12-30zM98 90q-12-12-12-30t12-30l60-60q12-12 30-12t30 12l234 232-120 122zM854 810l-172-84v-86l-92-92 86-86 92 92h86l84 172z" />
<glyph unicode="&#xf10ca;" glyph-name="account-tie-outline" d="M698 352q68-24 108-56 48-38 48-82v-214h-684v214q0 44 48 82 40 32 108 56l36-74q-46-16-78-34t-32-30v-132h180l38 216-40 80q44 4 82 4t82-4l-40-80 38-216h180v132q0 12-32 30t-78 34l10 20zM512 682q-36 0-61-25t-25-60 25-60 61-25 61 25 25 60-25 60-61 25zM512 426q-70 0-120 50t-50 121 50 121 120 50 120-50 50-121-50-121-120-50z" />
<glyph unicode="&#xf1118;" glyph-name="sign-real-estate" d="M768 554h-426q-36 0-61-25t-25-59v-256q0-36 25-61t61-25h426q36 0 61 25t25 61v256q0 34-25 59t-61 25zM598 214h-256v84h256v-84zM768 384h-426v86h426v-86zM938 640h-768v-682h-84v852h84v-84h768v-86z" />
<glyph unicode="&#xf112b;" glyph-name="home-roof" d="M810 214h128l-426 384-426-384h128l298 268zM298 520v78h-128v-192z" />
<glyph unicode="&#xf112d;" glyph-name="account-supervisor-outline" d="M704 234q52 0 107-19t63-35v-30h-340v30q8 16 63 35t107 19zM704 298q-44 0-96-12-58-16-96-40-42-28-42-64v-96h468v96q0 36-42 64-38 24-96 40-52 12-96 12zM384 342q-56 0-122-18-74-18-122-50-54-36-54-82v-106h298v64h-234v42q0 14 38 36t94 36q68 16 136 14 28 32 68 52-50 10-102 12zM384 618q26 0 45-18t19-45-19-46-45-19-45 19-19 46 19 45 45 18zM384 682q-54 0-91-37t-37-90 37-91 91-38 91 38 37 91-37 90-91 37zM704 534q18 0 30-13t12-31-12-30-30-12-30 12-12 30 12 31 30 13zM704 598q-44 0-75-32t-31-76 31-75 75-31 75 31 31 75-31 76-75 32z" />
<glyph unicode="&#xf115a;" glyph-name="home-edit-outline" d="M512 768l-426-384h128v-342h256v256h84v-90l86 86v90h-256v-256h-86v334l214 192 214-192v-82l104 102zM898 420q-10 0-16-6l-44-42 88-88 42 42q8 8 8 17t-8 17l-54 54q-6 6-16 6zM814 346l-260-258v-88h88l258 258z" />
<glyph unicode="&#xf1186;" glyph-name="file-certificate" d="M598 810h-300q-34 0-59-25t-25-59v-598q0-36 25-61t59-25h128v-128l86 44 86-44v128h128q34 0 59 25t25 61v470zM598 256v-86l-86 44-86-44v86l-84 42 84 44v84l86-42 86 42v-84l84-44zM554 554v192l192-192h-192z" />
<glyph unicode="&#xf1187;" glyph-name="file-certificate-outline" d="M598 342v84l-86-42-86 42v-84l-84-44 84-42v-86l86 44 86-44v86l84 42zM598 810h-300q-34 0-59-25t-25-59v-598q0-36 25-61t59-25h44v86h-44v598h256v-172h172v-426h-44v-86h44q34 0 59 25t25 61v470zM598 342v84l-86-42-86 42v-84l-84-44 84-42v-86l86 44 86-44v86l84 42zM426-86l86 44 86-44v214h-172v-214zM598 342v84l-86-42-86 42v-84l-84-44 84-42v-86l86 44 86-44v86l84 42z" />
<glyph unicode="&#xf1188;" glyph-name="certificate-outline" d="M554 0l86 42 86-42v298h-172v-298zM726 512v86l-86-44-86 44v-86l-84-42 84-44v-84l86 42 86-42v84l84 44zM854 768h-684q-34 0-59-25t-25-61v-426q0-36 25-61t59-25h300v86h-300v426h684v-426h-44v-86h44q34 0 59 25t25 61v426q0 36-25 61t-59 25zM470 554h-256v86h256v-86zM384 426h-170v86h170v-86zM470 298h-256v86h256v-86z" />
<glyph unicode="&#xf11d0;" glyph-name="crown-outline" d="M512 554l128-222 128 116-30-150h-452l-30 150 128-116zM512 726l-150-256-234 212 86-468h596l86 468-234-212zM810 128h-596v-42q0-20 11-32t31-12h512q20 0 31 12t11 32v42z" />
<glyph unicode="&#xf11d5;" glyph-name="shopping-outline" d="M810 640h-84q0 58-29 107t-78 78-107 29-107-29-78-78-29-107h-84q-36 0-61-25t-25-61v-512q0-34 25-59t61-25h596q36 0 61 25t25 59v512q0 36-25 61t-61 25zM512 768q54 0 91-37t37-91h-256q0 54 37 91t91 37zM810 42h-596v512h596v-512zM512 384q-54 0-91 37t-37 91h-86q0-58 29-107t78-78 107-29 107 29 78 78 29 107h-86q0-54-37-91t-91-37z" />
<glyph unicode="&#xf11d7;" glyph-name="note-text-outline" d="M640 768h-426q-36 0-61-25t-25-61v-596q0-36 25-61t61-25h596q36 0 61 25t25 61v426zM810 86h-596v596h384v-212h212v-384zM726 298h-428v86h428v-86zM598 170h-300v86h300v-86z" />
<glyph unicode="&#xf11ec;" glyph-name="plus-thick" d="M854 298h-256v-256h-172v256h-256v172h256v256h172v-256h256v-172z" />
<glyph unicode="&#xf1238;" glyph-name="exclamation-thick" d="M426 768h172v-470h-172v470zM426 0v170h172v-170h-172z" />
<glyph unicode="&#xf1277;" glyph-name="map-marker-multiple-outline" d="M490 512q0 44 32 75t76 31q34 0 62-20t38-52q6-18 6-34 0-44-31-75t-75-31q-36 0-63 19t-39 51q-6 18-6 36zM214 512q0-118 106-296 58-94 144-202l6-6-44-50-46 54q-56 70-102 138-66 98-104 180-46 104-46 182 0 100 60 179t154 107q-60-54-94-128t-34-158zM598 810q80 0 149-40t109-108 40-150q0-100-78-244-54-102-144-216-44-58-76-94v0l-48 54q-56 70-102 138-66 98-102 180-48 104-48 184t41 148 109 108 150 40zM598 726q-58 0-107-29t-78-78-29-107q0-34 8-62 14-54 56-128 52-94 150-224 96 130 150 224 40 74 54 128 8 28 8 62 0 58-28 107t-77 78-107 29z" />
<glyph unicode="&#xf1278;" glyph-name="percent-outline" d="M790 746l84-84-640-640-84 84zM298 726q54 0 91-38t37-91-37-90-90-37-91 37-38 90 38 91 90 38zM726 298q52 0 90-37t38-90-38-91-91-38-90 38-37 91 37 90 91 37zM298 640q-16 0-29-13t-13-30 13-30 30-13 30 13 13 30-13 30-31 13zM726 214q-18 0-31-13t-13-30 13-30 30-13 30 13 13 30-13 30-29 13z" />
<glyph unicode="&#xf12d3;" glyph-name="garage-variant" d="M938 512v-470h-84v384h-684v-384h-84v470l426 170zM810 384h-596v-86h596v86zM810 128h-596v-86h596v86zM810 256h-596v-86h596v86z" />
<glyph unicode="&#xf12d4;" glyph-name="garage-open-variant" d="M938 512v-470h-84v384h-684v-384h-84v470l426 170zM810 384h-596v-86h596v86z" />
<glyph unicode="&#xf12ea;" glyph-name="label-percent" d="M752 646q-12 18-30 27t-40 9h-468q-36 0-61-25t-25-59v-428q0-34 25-59t61-25h468q22 0 40 9t30 27l186 262zM360 554q26 0 44-18t18-43-18-43-43-18-43 18-18 43 18 43 42 18zM578 214q-24 0-42 18t-18 43 18 43 43 18 42-18 17-43-17-43-43-18zM350 214l-52 50 290 290 52-50z" />
<glyph unicode="&#xf12eb;" glyph-name="label-percent-outline" d="M682 170h-468v428h468l152-214zM752 646q-12 18-30 27t-40 9h-468q-36 0-61-25t-25-59v-428q0-34 25-59t61-25h468q22 0 40 9t30 27l186 262zM588 554l52-50-290-290-52 50zM360 554q26 0 44-18t18-43-18-43-43-18-43 18-18 43 18 43 42 18zM578 336q26 0 43-18t17-43-17-43-42-18-43 18-18 43 18 43 42 18z" />
<glyph unicode="&#xf12f7;" glyph-name="tag-multiple-outline" d="M278 470q24 0 44 19t20 44-20 45-45 20-44-20-19-45 19-44 45-19zM384 640l298-298-212-214-300 298v214h214zM384 726h-214q-34 0-59-25t-25-61v-214q0-40 24-60l300-298q18-26 59-26t61 26l212 214q26 26 26 60 0 40-26 60l-298 298q-20 26-60 26zM576 652l42 44 296-294q24-26 24-60 0-18-6-35t-18-25l-232-230-42 42 244 248z" />
<glyph unicode="&#xf12fb;" glyph-name="map-marker-check-outline" d="M512 726q58 0 107-29t78-78 29-107q0-84-74-214-54-98-140-208-86 110-140 208-74 130-74 214 0 58 29 107t78 78 107 29zM512 810q-82 0-150-40t-108-108-40-150q0-76 46-180 38-84 102-180 48-70 104-140l46-54 46 54q56 70 104 140 64 96 102 180 46 104 46 180 0 82-40 150t-108 108-150 40zM482 298l210 214-60 60-150-154-68 68-60-60z" />
<glyph unicode="&#xf12fc;" glyph-name="map-marker-radius-outline" d="M512 726q70 0 120-50t50-122q0-62-54-164-46-84-116-172-72 94-116 174-54 102-54 162 0 72 50 122t120 50zM512 810q-70 0-128-34t-93-93-35-129q0-120 128-306 64-94 128-162v0l40 46q48 58 88 118 56 82 88 152 40 88 40 152 0 70-35 129t-93 93-128 34zM512 640q-36 0-61-25t-25-60 25-60 61-25 61 25 25 60-25 60-61 25zM854 86q0-46-46-86t-125-63-171-23-171 23-125 63-46 86q0 40 35 75t97 61l26-38q-72-36-72-78 0-28 34-53t93-39 129-14 129 14 93 39 34 53q0 42-76 78l24 38q66-26 102-61t36-75z" />
<glyph unicode="&#xf1322;" glyph-name="hammer-screwdriver" d="M686 338l240-240-142-138-238 238v38l100 102h40zM724 446l-42 40-204-204v-84l-240-240-140 140 238 240h84l34 32-164 166h-56l-120 120 112 112 120-120v-56l166-164 114 114-42 44 56 56h-114l-28 28 142 140 28-28v-112l56 56 140-140q34-36 34-86t-34-84l-84 86z" />
<glyph unicode="&#xf1323;" glyph-name="hammer-wrench" d="M588 244l256-256 90 92-256 256zM746 466q-28 0-48 8l-486-484-90 90 316 316-76 76-30-30-62 60v-122l-30-30-150 152 30 30h120l-60 60 152 152q38 36 90 36t90-36l-90-92 60-60-30-30 76-76 78 80q-8 20-8 48 0 62 43 106t105 44q38 0 68-18l-114-114 64-64 114 114q18-30 18-68 0-62-44-105t-106-43z" />
<glyph unicode="&#xf135c;" glyph-name="palette-swatch-outline" d="M106 60l56-26v384l-102-248q-12-34 1-66t45-44zM648 692l214-512-312-128-212 506v6zM652 776q-20 0-34-4l-316-132q-22-10-36-31t-14-44 4-35l214-508q8-26 29-39t47-13q22 0 34 4l316 132q32 14 46 47t0 65l-212 508q-10 24-32 37t-46 13zM448 474q-20 0-31 12t-11 31 11 30 30 11 31-12 12-29-12-30-30-13zM252 52q0-36 25-61t61-25h58l-144 354v-268z" />
<glyph unicode="&#xf1380;" glyph-name="chart-ppf" d="M214 640v-86q102 0 198-35t166-99q66-58 104-134t44-158h84q-6 140-88 258t-216 186-292 68zM938 0h-852v768h84v-682h768v-86z" />
<glyph unicode="&#xf1398;" glyph-name="close-thick" d="M854 602l-124 124-218-218-218 218-124-124 218-218-218-218 124-124 218 218 218-218 124 124-218 218z" />
<glyph unicode="&#xf13b0;" glyph-name="home-search" d="M824 90q30 46 30 102 0 80-56 136t-136 56-136-56-56-136 56-136 136-56q54 0 100 30l134-132 60 60zM662 86q-44 0-76 31t-32 75 32 75 76 31 75-31 31-75-31-75-75-31zM214 42v342h-128l426 384 426-384h-76q-40 40-91 63t-109 23q-76 0-140-38t-101-101-37-139q0-82 44-150h-214z" />
<glyph unicode="&#xf13b1;" glyph-name="home-search-outline" d="M824 90q30 46 30 102 0 80-56 136t-136 56-136-56-56-136 56-136 136-56q54 0 100 30l134-132 60 60zM662 86q-44 0-76 31t-32 75 32 75 76 31 75-31 31-75-31-75-75-31zM214 42v342h-128l426 384 426-384h-76q-58 58-136 78l-214 192-214-192v-334h94q10-46 36-86h-214z" />
<glyph unicode="&#xf1464;" glyph-name="download-circle" d="M512 810q116 0 214-57t155-155 57-214-57-214-155-155-214-57-214 57-155 155-57 214 57 214 155 155 214 57zM342 170h340v86h-340v-86zM682 470h-106v170h-128v-170h-106l170-172z" />
</font>
</defs>
</svg>
